999
DXF file: tole2.dxf
999
Pro/ENGINEER 2021424 by Parametric Technology Corporation
  0
SECTION
  2
HEADER
  9
$ACADVER
  1
AC1024
  9
$DWGCODEPAGE
  3
ANSI_1252
  9
$EXTMAX
 10
840.0
 20
594.0
 30
0.0
  9
$EXTMIN
 10
0.0
 20
0.0
 30
0.0
  9
$LIMMIN
 10
0.0
 20
0.0
  9
$LIMMAX
 10
840.0
 20
594.0
  9
$VIEWCTR
 10
420.0
 20
297.0
  9
$VIEWSIZE
 40
594.0
  9
$CLAYER
  8
0
  9
$LTSCALE
 40
46.2
  9
$CELTYPE
  6
BYLAYER
  9
$DIMSCALE
 40
1.0
  9
$DIMASZ
 40
7.0
  9
$DIMEXO
 40
0.0
  9
$DIMDLI
 40
31.92
  9
$DIMEXE
 40
1.5
  9
$DIMCEN
 40
7.56
  9
$DIMLFAC
 40
1.0
  9
$DIMBLK
  1
_FILLED
  9
$DIMALT
 70
0
  9
$DIMALTF
 40
0.0393700787
  9
$DIMTXT
 40
7.0
  9
$DIMTOL
 70
1
  9
$DIMLIM
 70
0
  9
$DIMTFAC
 40
1.0
  9
$DIMTP
 40
0.01
  9
$DIMTM
 40
0.01
  9
$DIMGAP
 40
0.625
  9
$DIMDSEP
 70
46
  9
$AUNITS
 70
0
  9
$PDMODE
 70
3
  9
$PDSIZE
 40
2.5
  9
$HANDSEED
  5
34B
  9
$TILEMODE
 70
1
  9
$MEASUREMENT
 70
1
  9
$INSUNITS
 70
4
  0
ENDSEC
  0
SECTION
  2
CLASSES
  0
CLASS
  1
ACDBDICTIONARYWDFLT
  2
AcDbDictionaryWithDefault
  3
AutoCAD 2000
 90
0
 91
1
280
0
281
0
  0
CLASS
  1
ACDBPLACEHOLDER
  2
AcDbPlaceHolder
  3
AutoCAD 2000
 90
0
 91
1
280
0
281
0
  0
CLASS
  1
LAYOUT
  2
AcDbLayout
  3
AutoCAD 2000
 90
0
 91
0
280
0
281
0
  0
ENDSEC
  0
SECTION
  2
TABLES
  0
TABLE
  2
VPORT
  5
8
100
AcDbSymbolTable
 70
2
  0
VPORT
  5
1F4
100
AcDbSymbolTableRecord
100
AcDbViewportTableRecord
  2
*ACTIVE
 70
0
 10
0.0
 20
0.0
 11
1.0
 21
1.0
 12
420.0
 22
297.0
 13
0.0
 23
0.0
 14
1.0
 24
1.0
 15
0.0
 25
0.0
 16
0.0
 26
0.0
 36
1.0
 17
0.0
 27
0.0
 37
0.0
 40
594.0
 41
1.4141414141
 42
50.0
 43
0.0
 44
0.0
 50
0.0
 51
0.0
 71
0
 72
100
 73
1
 74
1
 75
0
 76
0
 77
0
 78
0
  0
ENDTAB
  0
TABLE
  2
LTYPE
  5
5
100
AcDbSymbolTable
 70
6
  0
LTYPE
  5
14
100
AcDbSymbolTableRecord
100
AcDbLinetypeTableRecord
  2
BYBLOCK
 70
0
  3

 72
65
 73
0
 40
0.0
  0
LTYPE
  5
15
100
AcDbSymbolTableRecord
100
AcDbLinetypeTableRecord
  2
BYLAYER
 70
0
  3

 72
65
 73
0
 40
0.0
  0
LTYPE
  5
16
100
AcDbSymbolTableRecord
100
AcDbLinetypeTableRecord
  2
CONTINUOUS
 70
64
  3
Solid line
 72
65
 73
0
 40
0.0
  0
LTYPE
  5
1F5
100
AcDbSymbolTableRecord
100
AcDbLinetypeTableRecord
  2
CENTER
 70
64
  3
____ _ ____ _ ____ _ ____ _ ____ _ ____ _ ____
 72
65
 73
4
 40
0.6
 49
0.375
 74
0
 49
-0.075
 74
0
 49
0.075
 74
0
 49
-0.075
 74
0
  0
LTYPE
  5
1F6
100
AcDbSymbolTableRecord
100
AcDbLinetypeTableRecord
  2
HIDDEN
 70
64
  3
- - - - - - - - - - - - - - - - - - - -
 72
65
 73
2
 40
0.2
 49
0.1
 74
0
 49
-0.1
 74
0
  0
LTYPE
  5
1F7
100
AcDbSymbolTableRecord
100
AcDbLinetypeTableRecord
  2
PHANTOM
 70
64
  3
_____ _ _ _____ _ _ _____ _ _ _____
 72
65
 73
6
 40
0.8
 49
0.45
 74
0
 49
-0.05
 74
0
 49
0.1
 74
0
 49
-0.05
 74
0
 49
0.1
 74
0
 49
-0.05
 74
0
  0
LTYPE
  5
1F8
100
AcDbSymbolTableRecord
100
AcDbLinetypeTableRecord
  2
DOT
 70
64
  3
. . . . . . . . . . . . . . . . . . . .
 72
65
 73
2
 40
0.2
 49
0.1
 74
0
 49
-0.1
 74
0
  0
LTYPE
  5
1F9
100
AcDbSymbolTableRecord
100
AcDbLinetypeTableRecord
  2
DASHED
 70
64
  3
- - - - - - - - - - - - - - - - - - - -
 72
65
 73
2
 40
0.2
 49
0.1
 74
0
 49
-0.1
 74
0
  0
ENDTAB
  0
TABLE
  2
LAYER
  5
2
100
AcDbSymbolTable
 70
36
  0
LAYER
  5
10
100
AcDbSymbolTableRecord
100
AcDbLayerTableRecord
  2
0
 70
0
 62
7
  6
CONTINUOUS
370
-3
390
F
  0
LAYER
  5
1FA
100
AcDbSymbolTableRecord
100
AcDbLayerTableRecord
  2
DEFAULT_1
 70
0
 62
7
  6
CENTER
370
-3
390
F
  0
LAYER
  5
1FB
100
AcDbSymbolTableRecord
100
AcDbLayerTableRecord
  2
DEFAULT_2
 70
0
 62
8
  6
HIDDEN
370
-3
390
F
  0
LAYER
  5
1FC
100
AcDbSymbolTableRecord
100
AcDbLayerTableRecord
  2
DEFAULT_3
 70
0
 62
7
  6
PHANTOM
370
-3
390
F
  0
LAYER
  5
1FD
100
AcDbSymbolTableRecord
100
AcDbLayerTableRecord
  2
AXES
 70
0
 62
7
  6
CONTINUOUS
370
-3
390
F
  0
LAYER
  5
1FE
100
AcDbSymbolTableRecord
100
AcDbLayerTableRecord
  2
CENTER_OF_GRAVITY
 70
0
 62
7
  6
CONTINUOUS
370
-3
390
F
  0
LAYER
  5
1FF
100
AcDbSymbolTableRecord
100
AcDbLayerTableRecord
  2
COORD_SYS
 70
0
 62
7
  6
CONTINUOUS
370
-3
390
F
  0
LAYER
  5
200
100
AcDbSymbolTableRecord
100
AcDbLayerTableRecord
  2
COPY_GEOM
 70
0
 62
7
  6
CONTINUOUS
370
-3
390
F
  0
LAYER
  5
201
100
AcDbSymbolTableRecord
100
AcDbLayerTableRecord
  2
COSMETICS
 70
0
 62
7
  6
CONTINUOUS
370
-3
390
F
  0
LAYER
  5
202
100
AcDbSymbolTableRecord
100
AcDbLayerTableRecord
  2
CURVES
 70
0
 62
7
  6
CONTINUOUS
370
-3
390
F
  0
LAYER
  5
203
100
AcDbSymbolTableRecord
100
AcDbLayerTableRecord
  2
DATUM_PLANES
 70
0
 62
7
  6
CONTINUOUS
370
-3
390
F
  0
LAYER
  5
204
100
AcDbSymbolTableRecord
100
AcDbLayerTableRecord
  2
DRAWING_VIEW_ORIGIN
 70
0
 62
7
  6
CONTINUOUS
370
-3
390
F
  0
LAYER
  5
205
100
AcDbSymbolTableRecord
100
AcDbLayerTableRecord
  2
NOTES
 70
0
 62
7
  6
CONTINUOUS
370
-3
390
F
  0
LAYER
  5
206
100
AcDbSymbolTableRecord
100
AcDbLayerTableRecord
  2
POINTS
 70
0
 62
7
  6
CONTINUOUS
370
-3
390
F
  0
LAYER
  5
207
100
AcDbSymbolTableRecord
100
AcDbLayerTableRecord
  2
SURFACES
 70
0
 62
7
  6
CONTINUOUS
370
-3
390
F
  0
LAYER
  5
208
100
AcDbSymbolTableRecord
100
AcDbLayerTableRecord
  2
TEXTE-NOTES
 70
0
 62
7
  6
CONTINUOUS
370
-3
390
F
  0
LAYER
  5
209
100
AcDbSymbolTableRecord
100
AcDbLayerTableRecord
  2
THREAD
 70
0
 62
7
  6
CONTINUOUS
370
-3
390
F
  0
ENDTAB
  0
TABLE
  2
STYLE
  5
3
100
AcDbSymbolTable
 70
1
  0
STYLE
  5
11
100
AcDbSymbolTableRecord
100
AcDbTextStyleTableRecord
  2
STANDARD
 70
0
 40
0.0
 41
0.7
 50
0.0
 71
0
 42
0.2
  3
txt
  4

  0
STYLE
  5
20A
100
AcDbSymbolTableRecord
100
AcDbTextStyleTableRecord
  2
TEXTSTYLE_1
 70
0
 40
0.0
 41
0.8
 50
0.0
 71
0
 42
0.2
  3
gdt
  4

  0
ENDTAB
  0
TABLE
  2
VIEW
  5
6
100
AcDbSymbolTable
 70
0
  0
ENDTAB
  0
TABLE
  2
UCS
  5
7
100
AcDbSymbolTable
 70
0
  0
ENDTAB
  0
TABLE
  2
APPID
  5
9
100
AcDbSymbolTable
 70
1
  0
APPID
  5
20B
100
AcDbSymbolTableRecord
100
AcDbRegAppTableRecord
  2
ACAD
 70
0
  0
ENDTAB
  0
TABLE
  2
BLOCK_RECORD
  5
1
100
AcDbSymbolTable
 70
0
  0
BLOCK_RECORD
  5
20C
100
AcDbSymbolTableRecord
100
AcDbBlockTableRecord
  2
*Model_Space
  0
BLOCK_RECORD
  5
20D
100
AcDbSymbolTableRecord
100
AcDbBlockTableRecord
  2
*Paper_Space
  0
BLOCK_RECORD
  5
20E
100
AcDbSymbolTableRecord
100
AcDbBlockTableRecord
  2
_FILLED
  0
BLOCK_RECORD
  5
20F
100
AcDbSymbolTableRecord
100
AcDbBlockTableRecord
  2
*D0
  0
BLOCK_RECORD
  5
210
100
AcDbSymbolTableRecord
100
AcDbBlockTableRecord
  2
*D1
  0
BLOCK_RECORD
  5
211
100
AcDbSymbolTableRecord
100
AcDbBlockTableRecord
  2
*D2
  0
BLOCK_RECORD
  5
212
100
AcDbSymbolTableRecord
100
AcDbBlockTableRecord
  2
*D3
  0
BLOCK_RECORD
  5
213
100
AcDbSymbolTableRecord
100
AcDbBlockTableRecord
  2
*D4
  0
BLOCK_RECORD
  5
214
100
AcDbSymbolTableRecord
100
AcDbBlockTableRecord
  2
*D5
  0
BLOCK_RECORD
  5
215
100
AcDbSymbolTableRecord
100
AcDbBlockTableRecord
  2
*D6
  0
BLOCK_RECORD
  5
216
100
AcDbSymbolTableRecord
100
AcDbBlockTableRecord
  2
*D7
  0
BLOCK_RECORD
  5
217
100
AcDbSymbolTableRecord
100
AcDbBlockTableRecord
  2
08029_BL5
  0
BLOCK_RECORD
  5
218
100
AcDbSymbolTableRecord
100
AcDbBlockTableRecord
  2
07006_BL4
  0
BLOCK_RECORD
  5
219
100
AcDbSymbolTableRecord
100
AcDbBlockTableRecord
  2
07004_BL3
  0
BLOCK_RECORD
  5
21A
100
AcDbSymbolTableRecord
100
AcDbBlockTableRecord
  2
07001_BL2
  0
BLOCK_RECORD
  5
21B
100
AcDbSymbolTableRecord
100
AcDbBlockTableRecord
  2
07005_BL1
  0
BLOCK_RECORD
  5
21C
100
AcDbSymbolTableRecord
100
AcDbBlockTableRecord
  2
DICKE_BL0
  0
ENDTAB
  0
TABLE
  2
DIMSTYLE
  5
A
100
AcDbSymbolTable
 70
1
100
AcDbDimStyleTable
 71
0
  0
DIMSTYLE
105
21D
100
AcDbSymbolTableRecord
100
AcDbDimStyleTableRecord
  2
STANDARD
 70
0
  3

  4

 40
1.0
 41
7.0
 42
0.0
 43
0.38
 44
1.5
 45
0.0
 46
0.0
 47
0.01
 48
0.01
140
7.0
141
0.09
142
0.0
143
25.4
144
1.0
145
0.0
146
1.0
147
0.625
 71
1
 72
0
 73
0
 74
0
 75
0
 76
0
 77
1
 78
8
 79
2
170
0
171
1
172
0
173
0
174
0
175
0
176
0
177
0
178
5
270
2
179
2
271
2
272
2
273
2
274
2
275
0
280
0
281
0
282
0
283
1
284
8
285
0
286
0
287
3
288
0
340
11
278
46
341
20E
342
20E
343
20E
344
20E
  0
DIMSTYLE
105
21E
100
AcDbSymbolTableRecord
100
AcDbDimStyleTableRecord
  2
DIMSTYLE_1
 70
0
  3

  4

 40
1.0
 41
7.0
 42
0.0
 43
0.38
 44
1.5
 45
0.0
 46
0.0
 47
0.2
 48
0.2
140
7.0
141
0.09
142
0.0
143
25.4
144
1.0
145
0.0
146
1.0
147
0.875
 71
0
 72
0
 73
0
 74
0
 75
0
 76
0
 77
1
 78
8
 79
2
170
0
171
1
172
0
173
0
174
0
175
0
176
0
177
0
178
5
270
2
179
2
271
1
272
1
273
2
274
2
275
0
280
0
281
0
282
0
283
1
284
8
285
0
286
0
287
3
288
0
340
11
278
46
341
20E
342
20E
343
20E
344
20E
  0
DIMSTYLE
105
21F
100
AcDbSymbolTableRecord
100
AcDbDimStyleTableRecord
  2
DIMSTYLE_2
 70
0
  3

  4

 40
1.0
 41
7.0
 42
0.0
 43
0.38
 44
1.5
 45
0.0
 46
0.0
 47
0.5
 48
0.5
140
7.0
141
0.09
142
0.0
143
25.4
144
1.0
145
0.0
146
1.0
147
0.875
 71
0
 72
0
 73
0
 74
0
 75
0
 76
0
 77
1
 78
8
 79
2
170
0
171
1
172
0
173
0
174
0
175
0
176
0
177
0
178
5
270
2
179
2
271
2
272
2
273
2
274
2
275
0
280
0
281
0
282
0
283
1
284
8
285
0
286
0
287
3
288
0
340
11
278
46
341
20E
342
20E
343
20E
344
20E
  0
DIMSTYLE
105
220
100
AcDbSymbolTableRecord
100
AcDbDimStyleTableRecord
  2
DIMSTYLE_3
 70
0
  3

  4

 40
1.0
 41
7.0
 42
0.0
 43
0.38
 44
1.5
 45
0.0
 46
0.0
 47
0.3
 48
0.3
140
7.0
141
0.09
142
0.0
143
25.4
144
1.0
145
0.0
146
1.0
147
0.875
 71
0
 72
0
 73
0
 74
0
 75
0
 76
0
 77
1
 78
8
 79
2
170
0
171
1
172
0
173
0
174
0
175
0
176
0
177
0
178
5
270
2
179
2
271
2
272
2
273
2
274
2
275
0
280
0
281
0
282
0
283
1
284
8
285
0
286
0
287
3
288
0
340
11
278
46
341
20E
342
20E
343
20E
344
20E
  0
DIMSTYLE
105
221
100
AcDbSymbolTableRecord
100
AcDbDimStyleTableRecord
  2
DIMSTYLE_4
 70
0
  3

  4

 40
1.0
 41
7.0
 42
0.0
 43
0.38
 44
1.5
 45
0.0
 46
0.0
 47
0.2
 48
0.2
140
7.0
141
0.09
142
0.0
143
25.4
144
1.0
145
0.0
146
1.0
147
0.875
 71
0
 72
0
 73
0
 74
0
 75
0
 76
0
 77
1
 78
8
 79
2
170
0
171
1
172
0
173
0
174
0
175
0
176
0
177
0
178
5
270
2
179
2
271
2
272
2
273
2
274
2
275
0
280
0
281
0
282
0
283
1
284
8
285
0
286
0
287
3
288
0
340
11
278
46
341
20E
342
20E
343
20E
344
20E
  0
DIMSTYLE
105
222
100
AcDbSymbolTableRecord
100
AcDbDimStyleTableRecord
  2
DIMSTYLE_5
 70
0
  3
<>
  4

 40
1.0
 41
7.0
 42
0.0
 43
0.38
 44
1.5
 45
0.0
 46
0.0
 47
0.1
 48
0.1
140
7.0
141
0.09
142
0.0
143
25.4
144
1.0
145
0.0
146
1.0
147
0.875
 71
0
 72
0
 73
0
 74
0
 75
0
 76
0
 77
1
 78
8
 79
2
170
0
171
1
172
0
173
0
174
0
175
0
176
0
177
0
178
5
270
2
179
2
271
2
272
2
273
2
274
2
275
0
280
0
281
0
282
0
283
1
284
8
285
0
286
0
287
3
288
0
340
11
278
46
341
20E
342
20E
343
20E
344
20E
  0
DIMSTYLE
105
223
100
AcDbSymbolTableRecord
100
AcDbDimStyleTableRecord
  2
DIMSTYLE_6
 70
0
  3
<>
  4

 40
1.0
 41
7.0
 42
0.0
 43
0.38
 44
1.5
 45
0.0
 46
0.0
 47
0.3
 48
0.3
140
7.0
141
0.09
142
0.0
143
25.4
144
1.0
145
0.0
146
1.0
147
0.875
 71
0
 72
0
 73
0
 74
0
 75
0
 76
0
 77
1
 78
8
 79
2
170
0
171
1
172
0
173
0
174
0
175
0
176
0
177
0
178
5
270
2
179
2
271
2
272
2
273
2
274
2
275
0
280
0
281
0
282
0
283
1
284
8
285
0
286
0
287
3
288
0
340
11
278
46
341
20E
342
20E
343
20E
344
20E
  0
ENDTAB
  0
ENDSEC
  0
SECTION
  2
BLOCKS
  0
BLOCK
  5
20
100
AcDbEntity
  8
0
100
AcDbBlockBegin
  2
*Model_Space
 70
0
 10
0.0
 20
0.0
 30
0.0
  3
*Model_Space
  1

  0
ENDBLK
  5
21
100
AcDbEntity
  8
0
100
AcDbBlockEnd
  0
BLOCK
  5
1C
100
AcDbEntity
  8
0
100
AcDbBlockBegin
  2
*Paper_Space
 70
0
 10
0.0
 20
0.0
 30
0.0
  3
*Paper_Space
  1

  0
ENDBLK
  5
1D
100
AcDbEntity
  8
0
100
AcDbBlockEnd
  0
BLOCK
  5
224
100
AcDbEntity
  8
0
100
AcDbBlockBegin
 62
2
  6
CONTINUOUS
  2
08029_BL5
 70
64
 10
89.3416235184
 20
469.0341784489
  3
08029_BL5
  1

  0
TEXT
  5
225
100
AcDbEntity
  8
0
100
AcDbText
 62
5
  6
CONTINUOUS
 10
85.3831968701
 20
461.7336001581
  7
STANDARD
 40
16.0
  1
*
 41
0.6666666667
 72
0
100
AcDbText
  0
LINE
  5
226
100
AcDbEntity
  8
0
100
AcDbLine
 62
5
  6
CONTINUOUS
 10
82.1312659187
 20
477.5594998945
 11
96.5519811181
 21
477.5594998945
  0
LINE
  5
227
100
AcDbEntity
  8
0
100
AcDbLine
 62
5
  6
CONTINUOUS
 10
96.5519811181
 20
468.9471283171
 11
96.5519811181
 21
460.3347567396
  0
LINE
  5
228
100
AcDbEntity
  8
0
100
AcDbLine
 62
5
  6
CONTINUOUS
 10
96.5519811181
 20
460.3347567396
 11
82.1312659187
 21
460.3347567396
  0
LINE
  5
229
100
AcDbEntity
  8
0
100
AcDbLine
 62
5
  6
CONTINUOUS
 10
82.1312659187
 20
460.3347567396
 11
82.1312659187
 21
477.5594998945
  0
LINE
  5
22A
100
AcDbEntity
  8
0
100
AcDbLine
 62
5
  6
CONTINUOUS
 10
96.5519811181
 20
477.5594998945
 11
96.5519811181
 21
468.9471283171
  0
ENDBLK
  5
22B
100
AcDbEntity
  8
0
  6
BYBLOCK
 62
0
100
AcDbBlockEnd
  0
BLOCK
  5
22C
100
AcDbEntity
  8
0
100
AcDbBlockBegin
 62
2
  6
CONTINUOUS
  2
07006_BL4
 70
64
 10
170.1301291128
 20
298.389520895
  3
07006_BL4
  1

  0
LINE
  5
22D
100
AcDbEntity
  8
0
100
AcDbLine
 62
4
  6
CONTINUOUS
 10
166.7129693495
 20
295.6843941822
 11
165.7015576842
 21
295.6843941822
  0
LINE
  5
22E
100
AcDbEntity
  8
0
100
AcDbLine
 62
4
  6
CONTINUOUS
 10
169.0829660752
 20
296.5861030865
 11
165.7015576842
 21
296.5861030865
  0
LINE
  5
22F
100
AcDbEntity
  8
0
100
AcDbLine
 62
4
  6
CONTINUOUS
 10
171.3372383358
 20
297.4878119907
 11
165.7015576842
 21
297.4878119907
  0
LINE
  5
230
100
AcDbEntity
  8
0
100
AcDbLine
 62
4
  6
CONTINUOUS
 10
165.7015576842
 20
301.0946476078
 11
166.7129693495
 21
301.0946476078
  0
LINE
  5
231
100
AcDbEntity
  8
0
100
AcDbLine
 62
4
  6
CONTINUOUS
 10
165.7015576842
 20
300.1929387035
 11
169.0829660752
 21
300.1929387035
  0
LINE
  5
232
100
AcDbEntity
  8
0
100
AcDbLine
 62
4
  6
CONTINUOUS
 10
165.7015576842
 20
299.2912297993
 11
171.3372383358
 21
299.2912297993
  0
LINE
  5
233
100
AcDbEntity
  8
0
100
AcDbLine
 62
4
  6
CONTINUOUS
 10
165.7015576842
 20
298.389520895
 11
173.5915105965
 21
298.389520895
  0
LINE
  5
234
100
AcDbEntity
  8
0
100
AcDbLine
 62
4
  6
CONTINUOUS
 10
165.1301291128
 20
302.389520895
 11
165.1301291128
 21
301.0561875592
  0
LINE
  5
235
100
AcDbEntity
  8
0
100
AcDbLine
 62
4
  6
CONTINUOUS
 10
165.1301291128
 20
294.389520895
 11
175.1301291128
 21
298.389520895
  0
LINE
  5
236
100
AcDbEntity
  8
0
100
AcDbLine
 62
4
  6
CONTINUOUS
 10
175.1301291128
 20
298.389520895
 11
165.1301291128
 21
302.389520895
  0
LINE
  5
237
100
AcDbEntity
  8
0
100
AcDbLine
 62
4
  6
CONTINUOUS
 10
165.1301291128
 20
298.389520895
 11
165.1301291128
 21
297.0561875629
  0
LINE
  5
238
100
AcDbEntity
  8
0
100
AcDbLine
 62
4
  6
CONTINUOUS
 10
165.1301291128
 20
301.0561875592
 11
165.1301291128
 21
299.7228542271
  0
LINE
  5
239
100
AcDbEntity
  8
0
100
AcDbLine
 62
4
  6
CONTINUOUS
 10
165.1301291128
 20
299.7228542271
 11
165.1301291128
 21
298.389520895
  0
LINE
  5
23A
100
AcDbEntity
  8
0
100
AcDbLine
 62
4
  6
CONTINUOUS
 10
165.1301291128
 20
297.0561875629
 11
165.1301291128
 21
295.7228542308
  0
LINE
  5
23B
100
AcDbEntity
  8
0
100
AcDbLine
 62
4
  6
CONTINUOUS
 10
165.1301291128
 20
295.7228542308
 11
165.1301291128
 21
294.389520895
  0
LINE
  5
23C
100
AcDbEntity
  8
0
100
AcDbLine
 62
4
  6
CONTINUOUS
 10
175.1299474256
 20
298.3780785798
 11
175.1299474256
 21
298.4004612243
  0
ENDBLK
  5
23D
100
AcDbEntity
  8
0
  6
BYBLOCK
 62
0
100
AcDbBlockEnd
  0
BLOCK
  5
23E
100
AcDbEntity
  8
0
100
AcDbBlockBegin
 62
2
  6
CONTINUOUS
  2
07004_BL3
 70
64
 10
623.023954006
 20
193.6758907011
  3
07004_BL3
  1

  0
LINE
  5
23F
100
AcDbEntity
  8
0
100
AcDbLine
 62
5
  6
CONTINUOUS
 10
490.1435060018
 20
176.1534329767
 11
609.2673499564
 21
176.1534329767
  0
LINE
  5
240
100
AcDbEntity
  8
0
100
AcDbLine
 62
5
  6
CONTINUOUS
 10
490.1435060018
 20
214.7409109057
 11
490.1435060018
 21
176.1534329767
  0
TEXT
  5
241
100
AcDbEntity
  8
0
100
AcDbText
 62
5
  6
CONTINUOUS
 10
598.1693006246
 20
202.1833990344
  7
STANDARD
 40
6.9999966125
  1
INNEN
 41
0.7428571429
 72
0
100
AcDbText
  0
TEXT
  5
242
100
AcDbEntity
  8
0
100
AcDbText
 62
5
  6
CONTINUOUS
 10
598.1693006246
 20
191.6834041157
  7
STANDARD
 40
6.9999966125
  1
INSIDE
 41
0.746031746
 72
0
100
AcDbText
  0
TEXT
  5
243
100
AcDbEntity
  8
0
100
AcDbText
 62
5
  6
CONTINUOUS
 10
598.1693006246
 20
181.1834091969
  7
STANDARD
 40
6.9999966125
  1
INTERIEURE
 41
0.7428571429
 72
0
100
AcDbText
  0
TEXT
  5
244
100
AcDbEntity
  8
0
100
AcDbText
 62
5
  6
CONTINUOUS
 10
687.0216956732
 20
201.8780643435
  7
STANDARD
 40
6.9999966125
  1
AUSSEN
 41
0.7857142857
 72
0
100
AcDbText
  0
TEXT
  5
245
100
AcDbEntity
  8
0
100
AcDbText
 62
5
  6
CONTINUOUS
 10
687.0216956732
 20
191.3780694248
  7
STANDARD
 40
6.9999966125
  1
OUTSIDE
 41
0.7823129252
 72
0
100
AcDbText
  0
TEXT
  5
246
100
AcDbEntity
  8
0
100
AcDbText
 62
5
  6
CONTINUOUS
 10
687.0216956732
 20
180.878074506
  7
STANDARD
 40
6.9999966125
  1
EXTERIEURE
 41
0.7571428571
 72
0
100
AcDbText
  0
TEXT
  5
247
100
AcDbEntity
  8
0
100
AcDbText
 62
5
  6
CONTINUOUS
 10
499.5087714508
 20
202.0951421858
  7
STANDARD
 40
6.999996
  1
BIEGEMITTE
 41
0.7571428571
 72
0
100
AcDbText
  0
TEXT
  5
248
100
AcDbEntity
  8
0
100
AcDbText
 62
5
  6
CONTINUOUS
 10
499.5087714508
 20
191.5951481858
  7
STANDARD
 40
6.999996
  1
BENDING LINE
 41
0.748015873
 72
0
100
AcDbText
  0
TEXT
  5
249
100
AcDbEntity
  8
0
100
AcDbText
 62
5
  6
CONTINUOUS
 10
499.5087714508
 20
181.0951541858
  7
STANDARD
 40
6.999996
  1
LIGNE DE PLIAGE
 41
0.746031746
 72
0
100
AcDbText
  0
ARC
  5
24A
100
AcDbEntity
  8
0
100
AcDbCircle
 62
5
  6
CONTINUOUS
 10
598.4336130137
 20
194.4764220347
 40
21.5747375738
100
AcDbArc
 50
135.9469514468
 51
224.5264919413
  0
ARC
  5
24B
100
AcDbEntity
  8
0
100
AcDbCircle
 62
5
  6
CONTINUOUS
 10
640.8424734047
 20
194.3084994982
 40
20.892085021
100
AcDbArc
 50
316.0809241867
 51
46.5693548047
  0
ARC
  5
24C
100
AcDbEntity
  8
0
100
AcDbCircle
 62
5
  6
CONTINUOUS
 10
686.8410582151
 20
194.1856080702
 40
21.5747375738
100
AcDbArc
 50
135.9469514468
 51
224.5264919413
  0
ARC
  5
24D
100
AcDbEntity
  8
0
100
AcDbCircle
 62
5
  6
CONTINUOUS
 10
729.2499186062
 20
194.0176855338
 40
20.892085021
100
AcDbArc
 50
316.0809241867
 51
46.5693548047
  0
LINE
  5
24E
100
AcDbEntity
  8
0
100
AcDbLine
 62
4
  6
CONTINUOUS
 10
585.7241901786
 20
196.5543198931
 11
585.7241901786
 21
197.5657310689
  0
LINE
  5
24F
100
AcDbEntity
  8
0
100
AcDbLine
 62
4
  6
CONTINUOUS
 10
586.6258986465
 20
194.1843243143
 11
586.6258986465
 21
197.5657310689
  0
LINE
  5
250
100
AcDbEntity
  8
0
100
AcDbLine
 62
4
  6
CONTINUOUS
 10
587.5276071144
 20
191.9300531446
 11
587.5276071144
 21
197.5657310689
  0
LINE
  5
251
100
AcDbEntity
  8
0
100
AcDbLine
 62
4
  6
CONTINUOUS
 10
591.134440986
 20
197.5657310689
 11
591.134440986
 21
196.5543198931
  0
LINE
  5
252
100
AcDbEntity
  8
0
100
AcDbLine
 62
4
  6
CONTINUOUS
 10
590.2327325181
 20
197.5657310689
 11
590.2327325181
 21
194.1843243143
  0
LINE
  5
253
100
AcDbEntity
  8
0
100
AcDbLine
 62
4
  6
CONTINUOUS
 10
589.3310240502
 20
197.5657310689
 11
589.3310240502
 21
191.9300531446
  0
LINE
  5
254
100
AcDbEntity
  8
0
100
AcDbLine
 62
4
  6
CONTINUOUS
 10
588.4293155823
 20
197.5657310689
 11
588.4293155823
 21
189.6757819748
  0
LINE
  5
255
100
AcDbEntity
  8
0
100
AcDbLine
 62
4
  6
CONTINUOUS
 10
592.4293136466
 20
198.1371593638
 11
591.095980956
 21
198.1371593638
  0
LINE
  5
256
100
AcDbEntity
  8
0
100
AcDbLine
 62
4
  6
CONTINUOUS
 10
584.429317518
 20
198.1371593638
 11
588.4293155823
 21
188.1371642031
  0
LINE
  5
257
100
AcDbEntity
  8
0
100
AcDbLine
 62
4
  6
CONTINUOUS
 10
588.4293155823
 20
188.1371642031
 11
592.4293136466
 21
198.1371593638
  0
LINE
  5
258
100
AcDbEntity
  8
0
100
AcDbLine
 62
4
  6
CONTINUOUS
 10
588.4293155823
 20
198.1371593638
 11
587.0959828954
 21
198.1371593638
  0
LINE
  5
259
100
AcDbEntity
  8
0
100
AcDbLine
 62
4
  6
CONTINUOUS
 10
591.095980956
 20
198.1371593638
 11
589.7626482691
 21
198.1371593638
  0
LINE
  5
25A
100
AcDbEntity
  8
0
100
AcDbLine
 62
4
  6
CONTINUOUS
 10
589.7626482691
 20
198.1371593638
 11
588.4293155823
 21
198.1371593638
  0
LINE
  5
25B
100
AcDbEntity
  8
0
100
AcDbLine
 62
4
  6
CONTINUOUS
 10
587.0959828954
 20
198.1371593638
 11
585.7626502086
 21
198.1371593638
  0
LINE
  5
25C
100
AcDbEntity
  8
0
100
AcDbLine
 62
4
  6
CONTINUOUS
 10
585.7626502086
 20
198.1371593638
 11
584.429317518
 21
198.1371593638
  0
LINE
  5
25D
100
AcDbEntity
  8
0
100
AcDbLine
 62
5
  6
CONTINUOUS
 10
490.1435060018
 20
176.1534329767
 11
755.9044020102
 21
176.1534329767
  0
LINE
  5
25E
100
AcDbEntity
  8
0
100
AcDbLine
 62
5
  6
CONTINUOUS
 10
490.1435060018
 20
214.7409109057
 11
755.9044020102
 21
214.7409109057
  0
LINE
  5
25F
100
AcDbEntity
  8
0
100
AcDbLine
 62
5
  6
CONTINUOUS
 10
755.9044020102
 20
214.7409109057
 11
755.9044020102
 21
176.1534329767
  0
LINE
  5
260
100
AcDbEntity
  8
0
100
AcDbLine
 62
4
  6
CONTINUOUS
 10
680.4267184203
 20
199.22525556
 11
679.0933850845
 21
199.22525556
  0
LINE
  5
261
100
AcDbEntity
  8
0
100
AcDbLine
 62
4
  6
CONTINUOUS
 10
672.4267184203
 20
199.22525556
 11
676.4267184203
 21
189.22525556
  0
LINE
  5
262
100
AcDbEntity
  8
0
100
AcDbLine
 62
4
  6
CONTINUOUS
 10
676.4267184203
 20
189.22525556
 11
680.4267184203
 21
199.22525556
  0
LINE
  5
263
100
AcDbEntity
  8
0
100
AcDbLine
 62
4
  6
CONTINUOUS
 10
676.4267184203
 20
199.22525556
 11
675.0933850882
 21
199.22525556
  0
LINE
  5
264
100
AcDbEntity
  8
0
100
AcDbLine
 62
4
  6
CONTINUOUS
 10
679.0933850845
 20
199.22525556
 11
677.7600517524
 21
199.22525556
  0
LINE
  5
265
100
AcDbEntity
  8
0
100
AcDbLine
 62
4
  6
CONTINUOUS
 10
677.7600517524
 20
199.22525556
 11
676.4267184203
 21
199.22525556
  0
LINE
  5
266
100
AcDbEntity
  8
0
100
AcDbLine
 62
4
  6
CONTINUOUS
 10
675.0933850882
 20
199.22525556
 11
673.7600517561
 21
199.22525556
  0
LINE
  5
267
100
AcDbEntity
  8
0
100
AcDbLine
 62
4
  6
CONTINUOUS
 10
673.7600517561
 20
199.22525556
 11
672.4267184203
 21
199.22525556
  0
LINE
  5
268
100
AcDbEntity
  8
0
100
AcDbLine
 62
4
  6
CONTINUOUS
 10
676.4152761051
 20
189.2254372472
 11
676.4376587496
 21
189.2254372472
  0
ENDBLK
  5
269
100
AcDbEntity
  8
0
  6
BYBLOCK
 62
0
100
AcDbBlockEnd
  0
BLOCK
  5
26A
100
AcDbEntity
  8
0
100
AcDbBlockBegin
 62
2
  6
CONTINUOUS
  2
07001_BL2
 70
64
 10
89.1263582475
 20
536.4264606132
  3
07001_BL2
  1

  0
TEXT
  5
26B
100
AcDbEntity
  8
0
100
AcDbText
 62
5
  6
CONTINUOUS
 10
48.8184407278
 20
543.6869686899
  7
STANDARD
 40
7.0
  1
ZUSCHNITT
 41
0.791005291
 72
0
100
AcDbText
  0
TEXT
  5
26C
100
AcDbEntity
  8
0
100
AcDbText
 62
5
  6
CONTINUOUS
 10
48.8184407278
 20
533.1869686899
  7
STANDARD
 40
7.0
  1
DEVELOPED VIEW
 41
0.8095238095
 72
0
100
AcDbText
  0
TEXT
  5
26D
100
AcDbEntity
  8
0
100
AcDbText
 62
5
  6
CONTINUOUS
 10
48.8184407278
 20
522.6869686899
  7
STANDARD
 40
7.0
  1
DEVELOPPEMENT
 41
0.7765567766
 72
0
100
AcDbText
  0
LINE
  5
26E
100
AcDbEntity
  8
0
100
AcDbLine
 62
5
  6
CONTINUOUS
 10
41.3531697015
 20
557.1068006214
 11
136.8995467935
 21
557.1068006214
  0
LINE
  5
26F
100
AcDbEntity
  8
0
100
AcDbLine
 62
5
  6
CONTINUOUS
 10
136.8995467935
 20
557.1068006214
 11
136.8995467935
 21
515.7461206051
  0
LINE
  5
270
100
AcDbEntity
  8
0
100
AcDbLine
 62
5
  6
CONTINUOUS
 10
136.8995467935
 20
515.7461206051
 11
41.3531697015
 21
515.7461206051
  0
LINE
  5
271
100
AcDbEntity
  8
0
100
AcDbLine
 62
5
  6
CONTINUOUS
 10
41.3531697015
 20
515.7461206051
 11
41.3531697015
 21
557.1068006214
  0
ENDBLK
  5
272
100
AcDbEntity
  8
0
  6
BYBLOCK
 62
0
100
AcDbBlockEnd
  0
BLOCK
  5
273
100
AcDbEntity
  8
0
100
AcDbBlockBegin
 62
2
  6
CONTINUOUS
  2
07005_BL1
 70
64
 10
616.98511489
 20
261.999290378
  3
07005_BL1
  1

  0
TEXT
  5
274
100
AcDbEntity
  8
0
100
AcDbText
 62
5
  6
CONTINUOUS
 10
515.320656657
 20
269.0524534191
  7
STANDARD
 40
7.0
  1
BIEGERADIEN INNEN
 41
0.7549019608
 72
0
100
AcDbText
  0
TEXT
  5
275
100
AcDbEntity
  8
0
100
AcDbText
 62
5
  6
CONTINUOUS
 10
515.320656657
 20
258.5524534191
  7
STANDARD
 40
7.0
  1
BENDING RADII INSIDE       R=1.5
 41
0.7544642857
 72
0
100
AcDbText
  0
TEXT
  5
276
100
AcDbEntity
  8
0
100
AcDbText
 62
5
  6
CONTINUOUS
 10
515.320656657
 20
248.0524534191
  7
STANDARD
 40
7.0
  1
RAYON DE PLIAGE INTERIEUR
 41
0.7676190476
 72
0
100
AcDbText
  0
LINE
  5
277
100
AcDbEntity
  8
0
100
AcDbLine
 62
5
  6
CONTINUOUS
 10
508.1431184203
 20
283.0465430728
 11
725.8271113597
 21
283.0465430728
  0
LINE
  5
278
100
AcDbEntity
  8
0
100
AcDbLine
 62
5
  6
CONTINUOUS
 10
725.8271113597
 20
283.0465430728
 11
725.8271113597
 21
240.9520376832
  0
LINE
  5
279
100
AcDbEntity
  8
0
100
AcDbLine
 62
5
  6
CONTINUOUS
 10
725.8271113597
 20
240.9520376832
 11
508.1431184203
 21
240.9520376832
  0
LINE
  5
27A
100
AcDbEntity
  8
0
100
AcDbLine
 62
5
  6
CONTINUOUS
 10
508.1431184203
 20
240.9520376832
 11
508.1431184203
 21
283.0465430728
  0
ENDBLK
  5
27B
100
AcDbEntity
  8
0
  6
BYBLOCK
 62
0
100
AcDbBlockEnd
  0
BLOCK
  5
27C
100
AcDbEntity
  8
0
100
AcDbBlockBegin
 62
2
  6
CONTINUOUS
  2
DICKE_BL0
 70
64
 10
574.6797433647
 20
325.5236949904
  3
DICKE_BL0
  1

  0
TEXT
  5
27D
100
AcDbEntity
  8
0
100
AcDbText
 62
5
  6
CONTINUOUS
 10
530.3715287031
 20
332.8676162504
  7
STANDARD
 40
7.0
  1
DICKE
 41
0.7761904762
 72
0
100
AcDbText
  0
TEXT
  5
27E
100
AcDbEntity
  8
0
100
AcDbText
 62
5
  6
CONTINUOUS
 10
530.3715287031
 20
322.3676162504
  7
STANDARD
 40
7.0
  1
THICKNESS
 41
0.7751322751
 72
0
100
AcDbText
  0
TEXT
  5
27F
100
AcDbEntity
  8
0
100
AcDbText
 62
5
  6
CONTINUOUS
 10
530.3715287031
 20
311.8676162504
  7
STANDARD
 40
7.0
  1
EPAISSEUR
 41
0.7619047619
 72
0
100
AcDbText
  0
TEXT
  5
280
100
AcDbEntity
  8
0
100
AcDbText
 62
5
  6
CONTINUOUS
 10
586.0507205543
 20
322.1769881755
  7
STANDARD
 40
7.0
  1
1.500
 41
0.6857142857
 72
0
100
AcDbText
  0
LINE
  5
281
100
AcDbEntity
  8
0
100
AcDbLine
 62
5
  6
CONTINUOUS
 10
522.9396701124
 20
305.6526934994
 11
522.9396701124
 21
345.3946964813
  0
LINE
  5
282
100
AcDbEntity
  8
0
100
AcDbLine
 62
5
  6
CONTINUOUS
 10
522.9396701124
 20
345.3946964813
 11
626.3342925856
 21
345.3946964813
  0
LINE
  5
283
100
AcDbEntity
  8
0
100
AcDbLine
 62
5
  6
CONTINUOUS
 10
522.9396701124
 20
305.6526934994
 11
626.419816617
 21
305.6526934994
  0
LINE
  5
284
100
AcDbEntity
  8
0
100
AcDbLine
 62
5
  6
CONTINUOUS
 10
626.419816617
 20
305.6526934994
 11
626.419816617
 21
345.3727397783
  0
ENDBLK
  5
285
100
AcDbEntity
  8
0
  6
BYBLOCK
 62
0
100
AcDbBlockEnd
  0
BLOCK
  5
286
100
AcDbEntity
  8
0
100
AcDbBlockBegin
  2
_FILLED
 70
64
 10
0.0
 20
0.0
  3
_FILLED
  1

  0
SOLID
  5
287
100
AcDbEntity
  8
0
  6
BYBLOCK
 62
0
100
AcDbTrace
 10
0.0
 20
0.0
 11
-1.0
 21
0.1428571429
 12
-1.0
 22
-0.1428571429
 13
-1.0
 23
-0.1428571429
  0
ENDBLK
  5
288
100
AcDbEntity
  8
0
  6
BYBLOCK
 62
0
100
AcDbBlockEnd
  0
BLOCK
  5
289
100
AcDbEntity
  8
0
100
AcDbBlockBegin
 62
2
  6
CONTINUOUS
  2
*D0
 70
65
 10
0.0
 20
0.0
  3
*D0
  1

  0
TEXT
  5
28A
100
AcDbEntity
  8
0
100
AcDbText
 62
5
  6
CONTINUOUS
 10
153.8530826951
 20
285.7569446334
  7
STANDARD
 40
7.0
  1
23.6
 41
0.7142857143
 72
1
 11
163.8530826951
 21
285.7569446334
100
AcDbText
  0
LINE
  5
28B
100
AcDbEntity
  8
0
100
AcDbLine
 62
2
  6
CONTINUOUS
 10
175.63357212
 20
311.878354442
 11
175.63357212
 21
281.0069446334
  0
LINE
  5
28C
100
AcDbEntity
  8
0
100
AcDbLine
 62
2
  6
CONTINUOUS
 10
152.0725932703
 20
367.6123261661
 11
152.0725932703
 21
281.0069446334
  0
LINE
  5
28D
100
AcDbEntity
  8
0
100
AcDbLine
 62
2
  6
CONTINUOUS
 10
175.63357212
 20
284.0069446334
 11
163.8530826951
 21
284.0069446334
  0
LINE
  5
28E
100
AcDbEntity
  8
0
100
AcDbLine
 62
2
  6
CONTINUOUS
 10
152.0725932703
 20
284.0069446334
 11
163.8530826951
 21
284.0069446334
  0
INSERT
  5
28F
100
AcDbEntity
  8
0
100
AcDbBlockReference
 62
2
  6
CONTINUOUS
  2
_FILLED
 10
175.63357212
 20
284.0069446334
 41
7.0
 42
7.0
 43
7.0
  0
INSERT
  5
290
100
AcDbEntity
  8
0
100
AcDbBlockReference
 62
2
  6
CONTINUOUS
  2
_FILLED
 10
152.0725932703
 20
284.0069446334
 41
7.0
 42
7.0
 43
7.0
 50
180.0
  0
ENDBLK
  5
291
100
AcDbEntity
  8
0
  6
BYBLOCK
 62
0
100
AcDbBlockEnd
  0
BLOCK
  5
292
100
AcDbEntity
  8
0
100
AcDbBlockBegin
 62
2
  6
CONTINUOUS
  2
*D1
 70
65
 10
0.0
 20
0.0
  3
*D1
  1

  0
TEXT
  5
293
100
AcDbEntity
  8
0
100
AcDbText
 62
5
  6
CONTINUOUS
 10
236.9607486311
 20
424.3623261661
  7
STANDARD
 40
7.0
  1
240
 50
90.0
 41
0.7857142857
 72
1
 11
236.9607486311
 21
432.6123261661
100
AcDbText
  0
LINE
  5
294
100
AcDbEntity
  8
0
100
AcDbLine
 62
2
  6
CONTINUOUS
 10
214.1945509698
 20
312.6123261661
 11
241.7107486311
 21
312.6123261661
  0
LINE
  5
295
100
AcDbEntity
  8
0
100
AcDbLine
 62
2
  6
CONTINUOUS
 10
214.1945509698
 20
552.6123261661
 11
241.7107486311
 21
552.6123261661
  0
LINE
  5
296
100
AcDbEntity
  8
0
100
AcDbLine
 62
2
  6
CONTINUOUS
 10
238.7107486311
 20
312.6123261661
 11
238.7107486311
 21
432.6123261661
  0
LINE
  5
297
100
AcDbEntity
  8
0
100
AcDbLine
 62
2
  6
CONTINUOUS
 10
238.7107486311
 20
552.6123261661
 11
238.7107486311
 21
432.6123261661
  0
INSERT
  5
298
100
AcDbEntity
  8
0
100
AcDbBlockReference
 62
2
  6
CONTINUOUS
  2
_FILLED
 10
238.7107486311
 20
312.6123261661
 41
7.0
 42
7.0
 43
7.0
 50
270.0
  0
INSERT
  5
299
100
AcDbEntity
  8
0
100
AcDbBlockReference
 62
2
  6
CONTINUOUS
  2
_FILLED
 10
238.7107486311
 20
552.6123261661
 41
7.0
 42
7.0
 43
7.0
 50
90.0
  0
ENDBLK
  5
29A
100
AcDbEntity
  8
0
  6
BYBLOCK
 62
0
100
AcDbBlockEnd
  0
BLOCK
  5
29B
100
AcDbEntity
  8
0
100
AcDbBlockBegin
 62
2
  6
CONTINUOUS
  2
*D2
 70
65
 10
0.0
 20
0.0
  3
*D2
  1

  0
TEXT
  5
29C
100
AcDbEntity
  8
0
100
AcDbText
 62
5
  6
CONTINUOUS
 10
334.3461880367
 20
297.1202853741
  7
STANDARD
 40
7.0
  1
240
 50
90.0
 41
0.7857142857
 72
1
 11
334.3461880367
 21
305.3702853741
100
AcDbText
  0
LINE
  5
29D
100
AcDbEntity
  8
0
100
AcDbLine
 62
2
  6
CONTINUOUS
 10
369.7855950208
 20
425.3702853741
 11
333.0961880367
 21
425.3702853741
  0
LINE
  5
29E
100
AcDbEntity
  8
0
100
AcDbLine
 62
2
  6
CONTINUOUS
 10
369.7855950208
 20
185.3702853741
 11
333.0961880367
 21
185.3702853741
  0
LINE
  5
29F
100
AcDbEntity
  8
0
100
AcDbLine
 62
2
  6
CONTINUOUS
 10
336.0961880367
 20
425.3702853741
 11
336.0961880367
 21
305.3702853741
  0
LINE
  5
2A0
100
AcDbEntity
  8
0
100
AcDbLine
 62
2
  6
CONTINUOUS
 10
336.0961880367
 20
185.3702853741
 11
336.0961880367
 21
305.3702853741
  0
INSERT
  5
2A1
100
AcDbEntity
  8
0
100
AcDbBlockReference
 62
2
  6
CONTINUOUS
  2
_FILLED
 10
336.0961880367
 20
425.3702853741
 41
7.0
 42
7.0
 43
7.0
 50
90.0
  0
INSERT
  5
2A2
100
AcDbEntity
  8
0
100
AcDbBlockReference
 62
2
  6
CONTINUOUS
  2
_FILLED
 10
336.0961880367
 20
185.3702853741
 41
7.0
 42
7.0
 43
7.0
 50
270.0
  0
ENDBLK
  5
2A3
100
AcDbEntity
  8
0
  6
BYBLOCK
 62
0
100
AcDbBlockEnd
  0
BLOCK
  5
2A4
100
AcDbEntity
  8
0
100
AcDbBlockBegin
 62
2
  6
CONTINUOUS
  2
*D3
 70
65
 10
0.0
 20
0.0
  3
*D3
  1

  0
TEXT
  5
2A5
100
AcDbEntity
  8
0
100
AcDbText
 62
5
  6
CONTINUOUS
 10
384.2855950208
 20
471.1376320873
  7
STANDARD
 40
7.0
  1
40
 41
0.7857142857
 72
1
 11
389.7855950208
 21
471.1376320873
100
AcDbText
  0
LINE
  5
2A6
100
AcDbEntity
  8
0
100
AcDbLine
 62
2
  6
CONTINUOUS
 10
409.7855950208
 20
494.174883418
 11
409.7855950208
 21
466.3876320873
  0
LINE
  5
2A7
100
AcDbEntity
  8
0
100
AcDbLine
 62
2
  6
CONTINUOUS
 10
369.7855950208
 20
491.174883418
 11
369.7855950208
 21
466.3876320873
  0
LINE
  5
2A8
100
AcDbEntity
  8
0
100
AcDbLine
 62
2
  6
CONTINUOUS
 10
409.7855950208
 20
469.3876320873
 11
389.7855950208
 21
469.3876320873
  0
LINE
  5
2A9
100
AcDbEntity
  8
0
100
AcDbLine
 62
2
  6
CONTINUOUS
 10
369.7855950208
 20
469.3876320873
 11
389.7855950208
 21
469.3876320873
  0
INSERT
  5
2AA
100
AcDbEntity
  8
0
100
AcDbBlockReference
 62
2
  6
CONTINUOUS
  2
_FILLED
 10
409.7855950208
 20
469.3876320873
 41
7.0
 42
7.0
 43
7.0
  0
INSERT
  5
2AB
100
AcDbEntity
  8
0
100
AcDbBlockReference
 62
2
  6
CONTINUOUS
  2
_FILLED
 10
369.7855950208
 20
469.3876320873
 41
7.0
 42
7.0
 43
7.0
 50
180.0
  0
ENDBLK
  5
2AC
100
AcDbEntity
  8
0
  6
BYBLOCK
 62
0
100
AcDbBlockEnd
  0
BLOCK
  5
2AD
100
AcDbEntity
  8
0
100
AcDbBlockBegin
 62
2
  6
CONTINUOUS
  2
*D4
 70
65
 10
0.0
 20
0.0
  3
*D4
  1

  0
TEXT
  5
2AE
100
AcDbEntity
  8
0
100
AcDbText
 62
5
  6
CONTINUOUS
 10
432.5037534649
 20
498.424883418
  7
STANDARD
 40
7.0
  1
25
 50
90.0
 41
0.75
 72
1
 11
432.5037534649
 21
503.674883418
100
AcDbText
  0
LINE
  5
2AF
100
AcDbEntity
  8
0
100
AcDbLine
 62
2
  6
CONTINUOUS
 10
406.7855950208
 20
491.174883418
 11
437.2537534649
 21
491.174883418
  0
LINE
  5
2B0
100
AcDbEntity
  8
0
100
AcDbLine
 62
2
  6
CONTINUOUS
 10
409.7855950208
 20
516.174883418
 11
437.2537534649
 21
516.174883418
  0
LINE
  5
2B1
100
AcDbEntity
  8
0
100
AcDbLine
 62
2
  6
CONTINUOUS
 10
434.2537534649
 20
491.174883418
 11
434.2537534649
 21
477.174883418
  0
LINE
  5
2B2
100
AcDbEntity
  8
0
100
AcDbLine
 62
2
  6
CONTINUOUS
 10
434.2537534649
 20
477.174883418
 11
434.2537534649
 21
503.674883418
  0
LINE
  5
2B3
100
AcDbEntity
  8
0
100
AcDbLine
 62
2
  6
CONTINUOUS
 10
434.2537534649
 20
516.174883418
 11
434.2537534649
 21
530.174883418
  0
LINE
  5
2B4
100
AcDbEntity
  8
0
100
AcDbLine
 62
2
  6
CONTINUOUS
 10
434.2537534649
 20
530.174883418
 11
434.2537534649
 21
503.674883418
  0
INSERT
  5
2B5
100
AcDbEntity
  8
0
100
AcDbBlockReference
 62
2
  6
CONTINUOUS
  2
_FILLED
 10
434.2537534649
 20
491.174883418
 41
7.0
 42
7.0
 43
7.0
 50
90.0
  0
INSERT
  5
2B6
100
AcDbEntity
  8
0
100
AcDbBlockReference
 62
2
  6
CONTINUOUS
  2
_FILLED
 10
434.2537534649
 20
516.174883418
 41
7.0
 42
7.0
 43
7.0
 50
270.0
  0
ENDBLK
  5
2B7
100
AcDbEntity
  8
0
  6
BYBLOCK
 62
0
100
AcDbBlockEnd
  0
BLOCK
  5
2B8
100
AcDbEntity
  8
0
100
AcDbBlockBegin
 62
2
  6
CONTINUOUS
  2
*D5
 70
65
 10
0.0
 20
0.0
  3
*D5
  1

  0
TEXT
  5
2B9
100
AcDbEntity
  8
0
100
AcDbText
 62
5
  6
CONTINUOUS
 10
379.7814644641
 20
508.6973476012
  7
STANDARD
 40
7.0
  1
R
 50
-24.9988463924
 41
0.7857142857
 72
2
 11
384.7662040919
 21
506.3730475251
100
AcDbText
  0
TEXT
  5
2BA
100
AcDbEntity
  8
0
100
AcDbText
 62
5
  6
CONTINUOUS
 10
384.7662040919
 20
506.3730475251
  7
STANDARD
 40
7.0
  1
1.5
 50
-24.9988463924
 41
0.619047619
 72
2
 11
396.5483159393
 21
500.8792473454
100
AcDbText
  0
LINE
  5
2BB
100
AcDbEntity
  8
0
100
AcDbLine
 62
2
  6
CONTINUOUS
 10
408.1450694647
 20
493.5409833972
 11
379.0419144399
 21
507.1112940833
  0
INSERT
  5
2BC
100
AcDbEntity
  8
0
100
AcDbBlockReference
 62
2
  6
CONTINUOUS
  2
_FILLED
 10
408.1450694647
 20
493.5409833972
 41
7.0
 42
7.0
 43
7.0
 50
335.0011536076
  0
ENDBLK
  5
2BD
100
AcDbEntity
  8
0
  6
BYBLOCK
 62
0
100
AcDbBlockEnd
  0
BLOCK
  5
2BE
100
AcDbEntity
  8
0
100
AcDbBlockBegin
 62
2
  6
CONTINUOUS
  2
*D6
 70
65
 10
0.0
 20
0.0
  3
*D6
  1

  0
TEXT
  5
2BF
100
AcDbEntity
  8
0
100
AcDbText
 62
5
  6
CONTINUOUS
 10
558.8319076936
 20
450.0118082024
  7
STANDARD
 40
7.0
  1
R
 50
-69.9786897647
 41
0.7857142857
 72
1
 11
559.773424157
 21
447.4280034983
100
AcDbText
  0
TEXT
  5
2C0
100
AcDbEntity
  8
0
100
AcDbText
 62
5
  6
CONTINUOUS
 10
560.7149406205
 20
444.8441987942
  7
STANDARD
 40
7.0
  1
60
 50
-69.9786897647
 41
0.7857142857
 72
1
 11
562.5979735475
 21
439.676589386
100
AcDbText
  0
LINE
  5
2C1
100
AcDbEntity
  8
0
100
AcDbLine
 62
2
  6
CONTINUOUS
 10
575.2657495048
 20
399.8009626009
 11
557.1876683364
 21
449.412661362
  0
INSERT
  5
2C2
100
AcDbEntity
  8
0
100
AcDbBlockReference
 62
2
  6
CONTINUOUS
  2
_FILLED
 10
575.2657495048
 20
399.8009626009
 41
7.0
 42
7.0
 43
7.0
 50
290.0213102353
  0
ENDBLK
  5
2C3
100
AcDbEntity
  8
0
  6
BYBLOCK
 62
0
100
AcDbBlockEnd
  0
BLOCK
  5
2C4
100
AcDbEntity
  8
0
100
AcDbBlockBegin
 62
2
  6
CONTINUOUS
  2
*D7
 70
65
 10
0.0
 20
0.0
  3
*D7
  1

  0
TEXT
  5
2C5
100
AcDbEntity
  8
0
100
AcDbText
 62
5
  6
CONTINUOUS
 10
522.22357212
 20
536.8884937663
  7
STANDARD
 40
7.0
  1
55
 41
0.7142857143
 72
1
 11
527.22357212
 21
536.8884937663
100
AcDbText
  0
LINE
  5
2C6
100
AcDbEntity
  8
0
100
AcDbLine
 62
2
  6
CONTINUOUS
 10
554.72357212
 20
478.174883418
 11
554.72357212
 21
538.1384937663
  0
LINE
  5
2C7
100
AcDbEntity
  8
0
100
AcDbLine
 62
2
  6
CONTINUOUS
 10
499.72357212
 20
491.174883418
 11
499.72357212
 21
538.1384937663
  0
LINE
  5
2C8
100
AcDbEntity
  8
0
100
AcDbLine
 62
2
  6
CONTINUOUS
 10
554.72357212
 20
535.1384937663
 11
527.22357212
 21
535.1384937663
  0
LINE
  5
2C9
100
AcDbEntity
  8
0
100
AcDbLine
 62
2
  6
CONTINUOUS
 10
499.72357212
 20
535.1384937663
 11
527.22357212
 21
535.1384937663
  0
INSERT
  5
2CA
100
AcDbEntity
  8
0
100
AcDbBlockReference
 62
2
  6
CONTINUOUS
  2
_FILLED
 10
554.72357212
 20
535.1384937663
 41
7.0
 42
7.0
 43
7.0
  0
INSERT
  5
2CB
100
AcDbEntity
  8
0
100
AcDbBlockReference
 62
2
  6
CONTINUOUS
  2
_FILLED
 10
499.72357212
 20
535.1384937663
 41
7.0
 42
7.0
 43
7.0
 50
180.0
  0
ENDBLK
  5
2CC
100
AcDbEntity
  8
0
  6
BYBLOCK
 62
0
100
AcDbBlockEnd
  0
ENDSEC
  0
SECTION
  2
ENTITIES
  0
DIMENSION
  5
2CD
100
AcDbEntity
  8
0
100
AcDbDimension
 62
2
  6
CONTINUOUS
  2
*D0
 10
152.0725932703
 20
284.0069446334
 11
162.8530838013
 21
284.0069446334
 70
160
 71
2
 72
2
 41
0.9
 42
23.5609788498
  3
DIMSTYLE_1
100
AcDbAlignedDimension
 13
175.63357212
 23
311.878354442
 14
152.0725932703
 24
367.6123261661
 50
180.0
100
AcDbRotatedDimension
  0
DIMENSION
  5
2CE
100
AcDbEntity
  8
0
100
AcDbDimension
 62
2
  6
CONTINUOUS
  2
*D1
 10
238.7107486311
 20
552.6123261661
 11
238.7107486311
 21
431.612325826
 70
160
 71
2
 72
2
 41
0.9
 42
240.0
  3
DIMSTYLE_2
100
AcDbAlignedDimension
 13
214.1945509698
 23
312.6123261661
 14
214.1945509698
 24
552.6123261661
 50
90.0
100
AcDbRotatedDimension
  0
DIMENSION
  5
2CF
100
AcDbEntity
  8
0
100
AcDbDimension
 62
2
  6
CONTINUOUS
  2
*D2
 10
336.0961880367
 20
185.3702853741
 11
336.0961880367
 21
304.3702948471
 70
160
 71
2
 72
2
 41
0.9
 42
240.0
  3
DIMSTYLE_2
100
AcDbAlignedDimension
 13
369.7855950208
 23
425.3702853741
 14
369.7855950208
 24
185.3702853741
 50
270.0
100
AcDbRotatedDimension
  0
DIMENSION
  5
2D0
100
AcDbEntity
  8
0
100
AcDbDimension
 62
2
  6
CONTINUOUS
  2
*D3
 10
369.7855950208
 20
469.3876320873
 11
388.7855969238
 21
469.3876320873
 70
160
 71
2
 72
2
 41
0.9
 42
40.0
  3
DIMSTYLE_3
100
AcDbAlignedDimension
 13
409.7855950208
 23
494.174883418
 14
369.7855950208
 24
491.174883418
 50
180.0
100
AcDbRotatedDimension
  0
DIMENSION
  5
2D1
100
AcDbEntity
  8
0
100
AcDbDimension
 62
2
  6
CONTINUOUS
  2
*D4
 10
434.2537534649
 20
516.174883418
 11
434.2537534649
 21
502.6748848359
 70
160
 71
2
 72
2
 41
0.9
 42
25.0
  3
DIMSTYLE_4
100
AcDbAlignedDimension
 13
406.7855950208
 23
491.174883418
 14
409.7855950208
 24
516.174883418
 50
90.0
100
AcDbRotatedDimension
  0
DIMENSION
  5
2D2
100
AcDbEntity
  8
0
100
AcDbDimension
 62
2
  6
CONTINUOUS
  2
*D5
 10
406.7855950208
 20
494.174883418
 11
387.4253401775
 21
503.2022439553
 70
164
 71
3
 72
2
 41
0.9
 42
1.5
  1
R<>
  3
DIMSTYLE_5
100
AcDbRadialDimension
 15
408.1450694647
 25
493.5409833972
  0
DIMENSION
  5
2D3
100
AcDbEntity
  8
0
100
AcDbDimension
 62
2
  6
CONTINUOUS
  2
*D6
 10
554.72357212
 20
456.174883418
 11
560.0122177268
 21
441.6612472497
 70
164
 71
2
 72
2
 41
0.9
 42
60.0
  1
R<>
  3
DIMSTYLE_6
100
AcDbRadialDimension
 15
575.2657495048
 25
399.8009626009
  0
DIMENSION
  5
2D4
100
AcDbEntity
  8
0
100
AcDbDimension
 62
2
  6
CONTINUOUS
  2
*D7
 10
499.72357212
 20
535.1384937663
 11
526.223572998
 21
535.1384937663
 70
160
 71
2
 72
2
 41
0.9
 42
55.0
  3
DIMSTYLE_3
100
AcDbAlignedDimension
 13
554.72357212
 23
478.174883418
 14
499.72357212
 24
491.174883418
 50
180.0
100
AcDbRotatedDimension
  0
TEXT
  5
2D5
100
AcDbEntity
  8
TEXTE-NOTES
100
AcDbText
 62
5
  6
CONTINUOUS
 10
536.5450047945
 20
87.1877371108
  7
STANDARD
 40
7.0
  1
Tole2
 41
0.7523809524
 72
0
100
AcDbText
  0
TEXT
  5
2D6
100
AcDbEntity
  8
TEXTE-NOTES
100
AcDbText
 62
5
  6
CONTINUOUS
 10
536.5450047945
 20
76.6877371108
  7
STANDARD
 40
7.0
  1
Echelle1/2
 41
0.680952381
 72
0
100
AcDbText
  0
TEXT
  5
2D7
100
AcDbEntity
  8
TEXTE-NOTES
100
AcDbText
 62
5
  6
CONTINUOUS
 10
536.5450047945
 20
66.1877371108
  7
STANDARD
 40
7.0
  1
 
 41
0.9761904762
 72
0
100
AcDbText
  0
TEXT
  5
2D8
100
AcDbEntity
  8
TEXTE-NOTES
100
AcDbText
 62
5
  6
CONTINUOUS
 10
536.5450047945
 20
55.6877371108
  7
STANDARD
 40
7.0
  1
Matiere S235
 41
0.7261904762
 72
0
100
AcDbText
  0
INSERT
  5
2D9
100
AcDbEntity
  8
0
100
AcDbBlockReference
 62
2
  6
CONTINUOUS
  2
DICKE_BL0
 10
574.6797433647
 20
325.5236949904
  0
INSERT
  5
2DA
100
AcDbEntity
  8
0
100
AcDbBlockReference
 62
2
  6
CONTINUOUS
  2
07005_BL1
 10
616.98511489
 20
261.999290378
  0
INSERT
  5
2DB
100
AcDbEntity
  8
0
100
AcDbBlockReference
 62
2
  6
CONTINUOUS
  2
07001_BL2
 10
89.1263582475
 20
536.4264606132
  0
INSERT
  5
2DC
100
AcDbEntity
  8
0
100
AcDbBlockReference
 62
2
  6
CONTINUOUS
  2
07004_BL3
 10
623.023954006
 20
193.6758907011
  0
INSERT
  5
2DD
100
AcDbEntity
  8
0
100
AcDbBlockReference
 62
2
  6
CONTINUOUS
  2
07006_BL4
 10
170.1301291128
 20
298.389520895
  0
LEADER
  5
2DE
100
AcDbEntity
  8
0
100
AcDbLeader
 62
2
  6
CONTINUOUS
  3
STANDARD
 71
1
 72
0
 73
2
 75
0
 76
2
 10
152.0725932703
 20
455.7474125435
 30
0.0
 10
96.5519811181
 20
468.9471283171
 30
0.0
340
2DF
212
7.2103575997
222
-0.0870501318
232
0.0
1001
ACAD
1000
DSTYLE
1002
{
1070
77
1070
0
1002
}
  0
INSERT
  5
2DF
102
{ACAD_REACTORS
330
2DE
102
}
100
AcDbEntity
  8
0
100
AcDbBlockReference
 62
2
  6
CONTINUOUS
  2
08029_BL5
 10
89.3416235184
 20
469.0341784489
  0
LINE
  5
2E0
100
AcDbEntity
  8
0
100
AcDbLine
 62
7
  6
CONTINUOUS
 10
0.0
 20
0.0
 11
0.0
 21
594.0
  0
LINE
  5
2E1
100
AcDbEntity
  8
0
100
AcDbLine
 62
7
  6
CONTINUOUS
 10
0.0
 20
0.0
 11
840.0
 21
0.0
  0
LINE
  5
2E2
100
AcDbEntity
  8
0
100
AcDbLine
 62
7
  6
CONTINUOUS
 10
0.0
 20
594.0
 11
840.0
 21
594.0
  0
LINE
  5
2E3
100
AcDbEntity
  8
0
100
AcDbLine
 62
7
  6
CONTINUOUS
 10
840.0
 20
0.0
 11
840.0
 21
594.0
  0
LINE
  5
2E4
100
AcDbEntity
  8
0
100
AcDbLine
 62
9
  6
CONTINUOUS
 10
111.8063469703
 20
256.0220574843
 11
110.7456867986
 21
255.4106586848
  0
LINE
  5
2E5
100
AcDbEntity
  8
0
100
AcDbLine
 62
7
  6
CONTINUOUS
 10
116.7560944387
 20
258.2891161252
 11
115.6954342669
 21
257.6777173257
  0
LINE
  5
2E6
100
AcDbEntity
  8
0
100
AcDbLine
 62
9
  6
CONTINUOUS
 10
113.2205605327
 20
255.206859085
 11
112.1599003609
 21
254.5954602855
  0
LINE
  5
2E7
100
AcDbEntity
  8
0
100
AcDbLine
 62
7
  6
CONTINUOUS
 10
136.9086377025
 20
49.3349657355
 11
115.6954342669
 21
61.5629417253
  0
LINE
  5
2E8
100
AcDbEntity
  8
0
100
AcDbLine
 62
7
  6
CONTINUOUS
 10
112.1599003609
 20
68.7211907621
 11
110.7456867986
 21
69.5363891614
  0
LINE
  5
2E9
100
AcDbEntity
  8
0
100
AcDbLine
 62
7
  6
CONTINUOUS
 10
105.5302191507
 20
72.8657010646
 11
104.469558979
 21
73.4770998641
  0
LINE
  5
2EA
100
AcDbEntity
  8
SURFACES
100
AcDbLine
 62
7
  6
CONTINUOUS
 10
137.9692978743
 20
246.0611401354
 11
136.9086377025
 21
245.4497413359
  0
LWPOLYLINE
  5
2EB
100
AcDbEntity
  8
0
100
AcDbPolyline
 62
7
  6
CONTINUOUS
 90
3
 70
0
 10
108.4258647291
 20
71.4916951348
 10
108.778359808
 20
71.197038266
 10
108.9826064371
 20
70.9915342281
  0
LINE
  5
2EC
100
AcDbEntity
  8
0
100
AcDbLine
 62
9
  6
CONTINUOUS
 10
92.0073570971
 20
101.0033219383
 11
93.0680172689
 21
100.3919231388
  0
LINE
  5
2ED
100
AcDbEntity
  8
0
100
AcDbLine
 62
3
  6
CONTINUOUS
 10
92.0073570971
 20
101.0033219383
 11
92.0073570971
 21
207.2321587219
  0
LINE
  5
2EE
100
AcDbEntity
  8
0
100
AcDbLine
 62
7
  6
CONTINUOUS
 10
93.0680172689
 20
100.3919231388
 11
93.0680172689
 21
206.6207599224
  0
LINE
  5
2EF
100
AcDbEntity
  8
0
100
AcDbLine
 62
9
  6
CONTINUOUS
 10
108.624366455
 20
253.5302246947
 11
108.624366455
 21
71.4168231515
  0
LINE
  5
2F0
100
AcDbEntity
  8
0
100
AcDbLine
 62
9
  6
CONTINUOUS
 10
110.7456867986
 20
255.4106586848
 11
110.7456867986
 21
69.5363891614
  0
LINE
  5
2F1
100
AcDbEntity
  8
0
100
AcDbLine
 62
7
  6
CONTINUOUS
 10
115.6954342669
 20
61.5629417253
 11
115.6954342669
 21
62.5974702721
  0
LINE
  5
2F2
100
AcDbEntity
  8
0
100
AcDbLine
 62
7
  6
CONTINUOUS
 10
115.6954342669
 20
256.6431887789
 11
115.6954342669
 21
257.6777173257
  0
LINE
  5
2F3
100
AcDbEntity
  8
SURFACES
100
AcDbLine
 62
7
  6
CONTINUOUS
 10
136.9086377025
 20
49.3349657355
 11
136.9086377025
 21
245.4497413359
  0
LINE
  5
2F4
100
AcDbEntity
  8
SURFACES
100
AcDbLine
 62
3
  6
CONTINUOUS
 10
137.9692978743
 20
49.946364535
 11
137.9692978743
 21
246.0611401354
  0
LINE
  5
2F5
100
AcDbEntity
  8
0
100
AcDbLine
 62
9
  6
CONTINUOUS
 10
92.0073570971
 20
207.2321587219
 11
93.0680172689
 21
206.6207599224
  0
LINE
  5
2F6
100
AcDbEntity
  8
0
100
AcDbLine
 62
7
  6
CONTINUOUS
 10
107.5637062832
 20
254.1416234942
 11
108.624366455
 21
253.5302246947
  0
LINE
  5
2F7
100
AcDbEntity
  8
0
100
AcDbLine
 62
7
  6
CONTINUOUS
 10
112.1599003609
 20
254.5954602855
 11
110.7456867986
 21
255.4106586848
  0
LINE
  5
2F8
100
AcDbEntity
  8
0
100
AcDbLine
 62
3
  6
CONTINUOUS
 10
113.2205605327
 20
255.206859085
 11
111.8063469703
 21
256.0220574843
  0
LINE
  5
2F9
100
AcDbEntity
  8
0
100
AcDbLine
 62
7
  6
CONTINUOUS
 10
136.9086377025
 20
245.4497413359
 11
115.6954342669
 21
257.6777173257
  0
LINE
  5
2FA
100
AcDbEntity
  8
0
100
AcDbLine
 62
3
  6
CONTINUOUS
 10
137.9692978743
 20
246.0611401354
 11
116.7560944387
 21
258.2891161252
  0
LINE
  5
2FB
100
AcDbEntity
  8
SURFACES
100
AcDbLine
 62
7
  6
CONTINUOUS
 10
137.9692978743
 20
49.946364535
 11
136.9086377025
 21
49.3349657355
  0
LINE
  5
2FC
100
AcDbEntity
  8
SURFACES
100
AcDbLine
 62
7
  6
CONTINUOUS
 10
369.7855950208
 20
491.174883418
 11
369.7855950208
 21
492.674883418
  0
LINE
  5
2FD
100
AcDbEntity
  8
0
100
AcDbLine
 62
3
  6
CONTINUOUS
 10
369.7855950208
 20
491.174883418
 11
406.7855950208
 21
491.174883418
  0
LINE
  5
2FE
100
AcDbEntity
  8
0
100
AcDbLine
 62
7
  6
CONTINUOUS
 10
369.7855950208
 20
492.674883418
 11
406.7855950208
 21
492.674883418
  0
LINE
  5
2FF
100
AcDbEntity
  8
0
100
AcDbLine
 62
7
  6
CONTINUOUS
 10
409.7855950208
 20
494.174883418
 11
408.2855950208
 21
494.174883418
  0
LINE
  5
300
100
AcDbEntity
  8
0
100
AcDbLine
 62
7
  6
CONTINUOUS
 10
399.7855950208
 20
491.174883418
 11
399.7855950208
 21
492.674883418
  0
LINE
  5
301
100
AcDbEntity
  8
0
100
AcDbLine
 62
7
  6
CONTINUOUS
 10
409.7855950208
 20
516.174883418
 11
408.2855950208
 21
516.174883418
  0
LINE
  5
302
100
AcDbEntity
  8
0
100
AcDbLine
 62
9
  6
CONTINUOUS
 10
404.7855950208
 20
491.174883418
 11
404.7855950208
 21
492.674883418
  0
LINE
  5
303
100
AcDbEntity
  8
0
100
AcDbLine
 62
9
  6
CONTINUOUS
 10
406.7855950208
 20
491.174883418
 11
406.7855950208
 21
492.674883418
  0
LINE
  5
304
100
AcDbEntity
  8
0
100
AcDbLine
 62
7
  6
CONTINUOUS
 10
408.2855950208
 20
516.174883418
 11
408.2855950208
 21
494.174883418
  0
LINE
  5
305
100
AcDbEntity
  8
0
100
AcDbLine
 62
3
  6
CONTINUOUS
 10
409.7855950208
 20
516.174883418
 11
409.7855950208
 21
494.174883418
  0
LINE
  5
306
100
AcDbEntity
  8
0
100
AcDbLine
 62
7
  6
CONTINUOUS
 10
369.7855950208
 20
185.3702853741
 11
399.7855950208
 21
185.3702853741
  0
LINE
  5
307
100
AcDbEntity
  8
0
100
AcDbLine
 62
7
  6
CONTINUOUS
 10
404.7855950208
 20
191.6363136501
 11
406.7855950208
 21
191.6363136501
  0
LINE
  5
308
100
AcDbEntity
  8
0
100
AcDbLine
 62
7
  6
CONTINUOUS
 10
409.7855950208
 20
193.9375383091
 11
408.2855950208
 21
193.9375383091
  0
LINE
  5
309
100
AcDbEntity
  8
0
100
AcDbLine
 62
9
  6
CONTINUOUS
 10
409.7855950208
 20
240.3702853741
 11
408.2855950208
 21
240.3702853741
  0
LINE
  5
30A
100
AcDbEntity
  8
SURFACES
100
AcDbLine
 62
7
  6
CONTINUOUS
 10
369.7855950208
 20
425.3702853741
 11
369.7855950208
 21
185.3702853741
  0
LINE
  5
30B
100
AcDbEntity
  8
0
100
AcDbLine
 62
7
  6
CONTINUOUS
 10
399.7855950208
 20
425.3702853741
 11
399.7855950208
 21
424.1042570981
  0
LINE
  5
30C
100
AcDbEntity
  8
0
100
AcDbLine
 62
7
  6
CONTINUOUS
 10
399.7855950208
 20
186.6363136501
 11
399.7855950208
 21
185.3702853741
  0
LINE
  5
30D
100
AcDbEntity
  8
0
100
AcDbLine
 62
9
  6
CONTINUOUS
 10
406.7855950208
 20
191.6363136501
 11
406.7855950208
 21
419.1042570981
  0
LINE
  5
30E
100
AcDbEntity
  8
0
100
AcDbLine
 62
7
  6
CONTINUOUS
 10
408.2855950208
 20
416.8030324391
 11
408.2855950208
 21
193.9375383091
  0
LINE
  5
30F
100
AcDbEntity
  8
0
100
AcDbLine
 62
3
  6
CONTINUOUS
 10
409.7855950208
 20
416.8030324391
 11
409.7855950208
 21
193.9375383091
  0
LINE
  5
310
100
AcDbEntity
  8
0
100
AcDbLine
 62
9
  6
CONTINUOUS
 10
409.7855950208
 20
370.3702853741
 11
408.2855950208
 21
370.3702853741
  0
LINE
  5
311
100
AcDbEntity
  8
0
100
AcDbLine
 62
7
  6
CONTINUOUS
 10
409.7855950208
 20
416.8030324391
 11
408.2855950208
 21
416.8030324391
  0
LINE
  5
312
100
AcDbEntity
  8
0
100
AcDbLine
 62
7
  6
CONTINUOUS
 10
404.7855950208
 20
419.1042570981
 11
406.7855950208
 21
419.1042570981
  0
LINE
  5
313
100
AcDbEntity
  8
0
100
AcDbLine
 62
7
  6
CONTINUOUS
 10
369.7855950208
 20
425.3702853741
 11
399.7855950208
 21
425.3702853741
  0
LINE
  5
314
100
AcDbEntity
  8
SURFACES
100
AcDbLine
 62
7
  6
CONTINUOUS
 10
499.72357212
 20
491.174883418
 11
499.72357212
 21
492.674883418
  0
LINE
  5
315
100
AcDbEntity
  8
AXES
100
AcDbLine
 62
7
  6
CENTER
 10
554.72357212
 20
456.174883418
 11
554.72357212
 21
434.174883418
  0
LINE
  5
316
100
AcDbEntity
  8
AXES
100
AcDbLine
 62
7
  6
CENTER
 10
554.72357212
 20
456.174883418
 11
554.72357212
 21
478.174883418
  0
LINE
  5
317
100
AcDbEntity
  8
AXES
100
AcDbLine
 62
7
  6
CENTER
 10
554.72357212
 20
456.174883418
 11
532.72357212
 21
456.174883418
  0
LINE
  5
318
100
AcDbEntity
  8
AXES
100
AcDbLine
 62
7
  6
CENTER
 10
554.72357212
 20
456.174883418
 11
576.72357212
 21
456.174883418
  0
LINE
  5
319
100
AcDbEntity
  8
SURFACES
100
AcDbLine
 62
3
  6
CONTINUOUS
 10
499.72357212
 20
491.174883418
 11
739.72357212
 21
491.174883418
  0
LINE
  5
31A
100
AcDbEntity
  8
SURFACES
100
AcDbLine
 62
7
  6
CONTINUOUS
 10
499.72357212
 20
492.674883418
 11
739.72357212
 21
492.674883418
  0
LINE
  5
31B
100
AcDbEntity
  8
0
100
AcDbLine
 62
9
  6
CONTINUOUS
 10
731.156319185
 20
494.174883418
 11
508.290825055
 21
494.174883418
  0
LINE
  5
31C
100
AcDbEntity
  8
0
100
AcDbLine
 62
7
  6
CONTINUOUS
 10
554.72357212
 20
516.174883418
 11
684.72357212
 21
516.174883418
  0
LINE
  5
31D
100
AcDbEntity
  8
SURFACES
100
AcDbLine
 62
7
  6
CONTINUOUS
 10
739.72357212
 20
491.174883418
 11
739.72357212
 21
492.674883418
  0
LINE
  5
31E
100
AcDbEntity
  8
0
100
AcDbLine
 62
7
  6
CONTINUOUS
 10
214.1945509698
 20
312.6123261661
 11
184.1945509698
 21
312.6123261661
  0
LINE
  5
31F
100
AcDbEntity
  8
0
100
AcDbLine
 62
7
  6
CONTINUOUS
 10
184.1945509698
 20
318.878354442
 11
177.1945509698
 21
318.878354442
  0
LINE
  5
320
100
AcDbEntity
  8
0
100
AcDbLine
 62
7
  6
CONTINUOUS
 10
152.0725932703
 20
367.6123261661
 11
152.0725932703
 21
497.6123261661
  0
LINE
  5
321
100
AcDbEntity
  8
0
100
AcDbLine
 62
9
  6
CONTINUOUS
 10
174.0725932703
 20
544.0450732311
 11
174.0725932703
 21
321.1795791011
  0
LINE
  5
322
100
AcDbEntity
  8
AXES
100
AcDbLine
 62
7
  6
CENTER
 10
175.63357212
 20
553.3462978901
 11
175.63357212
 21
311.878354442
  0
LINE
  5
323
100
AcDbEntity
  8
0
100
AcDbLine
 62
9
  6
CONTINUOUS
 10
177.1945509698
 20
546.3462978901
 11
177.1945509698
 21
318.878354442
  0
LINE
  5
324
100
AcDbEntity
  8
0
100
AcDbLine
 62
7
  6
CONTINUOUS
 10
184.1945509698
 20
312.6123261661
 11
184.1945509698
 21
318.878354442
  0
LINE
  5
325
100
AcDbEntity
  8
0
100
AcDbLine
 62
7
  6
CONTINUOUS
 10
184.1945509698
 20
546.3462978901
 11
184.1945509698
 21
552.6123261661
  0
LINE
  5
326
100
AcDbEntity
  8
AXES
100
AcDbLine
 62
7
  6
CENTER
 10
145.0725932703
 20
432.6123261661
 11
221.1945509698
 21
432.6123261661
  0
LINE
  5
327
100
AcDbEntity
  8
SURFACES
100
AcDbLine
 62
7
  6
CONTINUOUS
 10
214.1945509698
 20
312.6123261661
 11
214.1945509698
 21
552.6123261661
  0
LINE
  5
328
100
AcDbEntity
  8
0
100
AcDbLine
 62
7
  6
CONTINUOUS
 10
184.1945509698
 20
546.3462978901
 11
177.1945509698
 21
546.3462978901
  0
LINE
  5
329
100
AcDbEntity
  8
0
100
AcDbLine
 62
7
  6
CONTINUOUS
 10
214.1945509698
 20
552.6123261661
 11
184.1945509698
 21
552.6123261661
  0
ARC
  5
32A
100
AcDbEntity
  8
0
100
AcDbCircle
 62
7
  6
CONTINUOUS
 10
115.6383628077
 20
90.4238662749
 40
20.2599070366
100
AcDbArc
 50
240.0703179006
 51
249.744884706
  0
ARC
  5
32B
100
AcDbEntity
  8
0
100
AcDbCircle
 62
7
  6
CONTINUOUS
 10
115.5485707503
 20
90.2445918045
 40
20.0597437101
100
AcDbArc
 50
236.5516094986
 51
240.0371014003
  0
ARC
  5
32C
100
AcDbEntity
  8
0
100
AcDbCircle
 62
3
  6
CONTINUOUS
 10
406.7855950208
 20
494.174883418
 40
3.0
100
AcDbArc
 50
270.0
 51
360.0
  0
ARC
  5
32D
100
AcDbEntity
  8
0
100
AcDbCircle
 62
7
  6
CONTINUOUS
 10
406.7855950208
 20
494.174883418
 40
1.5
100
AcDbArc
 50
270.0
 51
360.0
  0
ARC
  5
32E
100
AcDbEntity
  8
0
100
AcDbCircle
 62
7
  6
CONTINUOUS
 10
404.7855950208
 20
424.1042570981
 40
5.0
100
AcDbArc
 50
180.0
 51
270.0
  0
ARC
  5
32F
100
AcDbEntity
  8
0
100
AcDbCircle
 62
7
  6
CONTINUOUS
 10
404.7855950208
 20
186.6363136501
 40
5.0
100
AcDbArc
 50
90.0
 51
180.0
  0
ARC
  5
330
100
AcDbEntity
  8
0
100
AcDbCircle
 62
7
  6
CONTINUOUS
 10
554.72357212
 20
456.174883418
 40
60.0
100
AcDbArc
 50
90.0
 51
140.7035197608
  0
ARC
  5
331
100
AcDbEntity
  8
0
100
AcDbCircle
 62
7
  6
CONTINUOUS
 10
684.72357212
 20
456.174883418
 40
60.0
100
AcDbArc
 50
39.2964802392
 51
90.0
  0
ARC
  5
332
100
AcDbEntity
  8
0
100
AcDbCircle
 62
2
  6
CONTINUOUS
 10
554.72357212
 20
456.174883418
 40
60.0
100
AcDbArc
 50
140.7035197608
 51
290.0213102353
  0
ARC
  5
333
100
AcDbEntity
  8
0
100
AcDbCircle
 62
7
  6
CONTINUOUS
 10
707.1227106326
 20
454.7885166761
 40
46.1400067748
100
AcDbArc
 50
55.1968161553
 51
58.6084077192
  0
ARC
  5
334
100
AcDbEntity
  8
0
100
AcDbCircle
 62
7
  6
CONTINUOUS
 10
531.7808485326
 20
455.622457595
 40
45.1449968414
100
AcDbArc
 50
121.353984523
 51
124.8407916025
  0
ARC
  5
335
100
AcDbEntity
  8
0
100
AcDbCircle
 62
7
  6
CONTINUOUS
 10
212.0725932703
 20
367.6123261661
 40
60.0
100
AcDbArc
 50
180.0
 51
230.7035197608
  0
ARC
  5
336
100
AcDbEntity
  8
0
100
AcDbCircle
 62
7
  6
CONTINUOUS
 10
212.0725932703
 20
497.6123261661
 40
60.0
100
AcDbArc
 50
129.2964802392
 51
180.0
  0
SPLINE
  5
337
100
AcDbEntity
  8
0
100
AcDbSpline
 62
7
  6
CONTINUOUS
 70
0
 71
3
 72
11
 73
7
 74
0
 42
0.0000001
 43
0.0000001
 44
0.0000000001
 40
0.0
 40
0.0
 40
0.0
 40
0.0
 40
0.2371192889
 40
0.4998494449
 40
0.7626615562
 40
1.0
 40
1.0
 40
1.0
 40
1.0
 10
112.1599003609
 20
68.7211907621
 30
0.0
 10
112.6618172167
 20
68.4318696664
 30
0.0
 10
113.6118241053
 20
67.6329831074
 30
0.0
 10
114.7205002973
 20
66.1181829794
 30
0.0
 10
115.4781691177
 20
64.4001199317
 30
0.0
 10
115.6954342669
 20
63.1773391477
 30
0.0
 10
115.6954342669
 20
62.5974702721
 30
0.0
  0
SPLINE
  5
338
100
AcDbEntity
  8
0
100
AcDbSpline
 62
7
  6
CONTINUOUS
 70
0
 71
3
 72
10
 73
6
 74
0
 42
0.0000001
 43
0.0000001
 44
0.0000000001
 40
0.0
 40
0.0
 40
0.0
 40
0.0
 40
0.1841152151
 40
0.4203765234
 40
1.0
 40
1.0
 40
1.0
 40
1.0
 10
110.7456867986
 20
69.5363891614
 30
0.0
 10
110.6238404221
 20
69.6066253504
 30
0.0
 10
110.3550427882
 20
69.7832214704
 30
0.0
 10
109.74502013
 20
70.2429960612
 30
0.0
 10
109.2825039607
 20
70.6656358865
 30
0.0
 10
108.9826937631
 20
70.9914392944
 30
0.0
  0
SPLINE
  5
339
100
AcDbEntity
  8
0
100
AcDbSpline
 62
7
  6
CONTINUOUS
 70
0
 71
3
 72
11
 73
7
 74
0
 42
0.0000001
 43
0.0000001
 44
0.0000000001
 40
0.0
 40
0.0
 40
0.0
 40
0.0
 40
0.2898080074
 40
0.5490512516
 40
0.7822352291
 40
1.0
 40
1.0
 40
1.0
 40
1.0
 10
115.6954342669
 20
256.6431887789
 30
0.0
 10
115.6954342669
 20
256.3891640804
 30
0.0
 10
115.657052692
 20
255.9062384279
 30
0.0
 10
115.461116907
 20
255.2428217344
 30
0.0
 10
115.1318471358
 20
254.7044931537
 30
0.0
 10
114.8222874094
 20
254.4446788163
 30
0.0
 10
114.6569183078
 20
254.349352955
 30
0.0
  0
SPLINE
  5
33A
100
AcDbEntity
  8
0
100
AcDbSpline
 62
7
  6
CONTINUOUS
 70
0
 71
3
 72
14
 73
10
 74
0
 42
0.0000001
 43
0.0000001
 44
0.0000000001
 40
0.0
 40
0.0
 40
0.0
 40
0.0
 40
0.1077997584
 40
0.218113883
 40
0.3325467301
 40
0.4524045931
 40
0.5786478371
 40
0.7118928079
 40
1.0
 40
1.0
 40
1.0
 40
1.0
 10
104.4919281933
 20
73.5070898081
 30
0.0
 10
103.580556256
 20
74.1091147127
 30
0.0
 10
101.8334495195
 20
75.4809148527
 30
0.0
 10
99.5361416321
 20
77.9630213897
 30
0.0
 10
97.5631271665
 20
80.8583662466
 30
0.0
 10
95.9309667645
 20
84.1378061728
 30
0.0
 10
94.6512083002
 20
87.7717413863
 30
0.0
 10
93.3952881648
 20
93.1847385202
 30
0.0
 10
93.0680172689
 20
97.4727321943
 30
0.0
 10
93.0680172689
 20
100.3919231388
 30
0.0
  0
SPLINE
  5
33B
100
AcDbEntity
  8
0
100
AcDbSpline
 62
7
  6
CONTINUOUS
 70
0
 71
3
 72
14
 73
10
 74
0
 42
0.0000001
 43
0.0000001
 44
0.0000000001
 40
0.0
 40
0.0
 40
0.0
 40
0.0
 40
0.3749345904
 40
0.5282508926
 40
0.6587194148
 40
0.7659959217
 40
0.8550267653
 40
0.9312450763
 40
1.0
 40
1.0
 40
1.0
 40
1.0
 10
108.624366455
 20
253.5302246947
 30
0.0
 10
108.7700495105
 20
253.8897586736
 30
0.0
 10
109.0230816248
 20
254.381396707
 30
0.0
 10
109.4456291288
 20
254.9182270848
 30
0.0
 10
109.7400984643
 20
255.1982299374
 30
0.0
 10
110.0240672925
 20
255.3857602544
 30
0.0
 10
110.2916775338
 20
255.484450591
 30
0.0
 10
110.5382274183
 20
255.4965469773
 30
0.0
 10
110.6840552957
 20
255.4461850747
 30
0.0
 10
110.7456867986
 20
255.4106586848
 30
0.0
  0
SPLINE
  5
33C
100
AcDbEntity
  8
0
100
AcDbSpline
 62
7
  6
CONTINUOUS
 70
0
 71
3
 72
9
 73
5
 74
0
 42
0.0000001
 43
0.0000001
 44
0.0000000001
 40
0.0
 40
0.0
 40
0.0
 40
0.0
 40
0.2557040674
 40
1.0
 40
1.0
 40
1.0
 40
1.0
 10
108.9826937631
 20
70.9914392944
 30
0.0
 10
108.9505862473
 20
71.0263304961
 30
0.0
 10
108.8263711764
 20
71.1640067989
 30
0.0
 10
108.7079080933
 20
71.3069613561
 30
0.0
 10
108.624366455
 20
71.4168231515
 30
0.0
  0
SPLINE
  5
33D
100
AcDbEntity
  8
0
100
AcDbSpline
 62
7
  6
CONTINUOUS
 70
0
 71
3
 72
11
 73
7
 74
0
 42
0.0000001
 43
0.0000001
 44
0.0000000001
 40
0.0
 40
0.0
 40
0.0
 40
0.0
 40
0.2178964662
 40
0.4511355631
 40
0.7103283904
 40
1.0
 40
1.0
 40
1.0
 40
1.0
 10
114.6569183078
 20
254.349352955
 30
0.0
 10
114.4920572852
 20
254.2543199722
 30
0.0
 10
114.1134477158
 20
254.1169145852
 30
0.0
 10
113.4848418183
 20
254.1009412629
 30
0.0
 10
112.8148593562
 20
254.2620225387
 30
0.0
 10
112.3790676535
 20
254.4691251754
 30
0.0
 10
112.1599003609
 20
254.5954602855
 30
0.0
  0
SPLINE
  5
33E
100
AcDbEntity
  8
0
100
AcDbSpline
 62
7
  6
CONTINUOUS
 70
0
 71
3
 72
11
 73
7
 74
0
 42
0.0000001
 43
0.0000001
 44
0.0000000001
 40
0.0
 40
0.0
 40
0.0
 40
0.0
 40
0.2278631129
 40
0.4751886916
 40
0.7352651365
 40
1.0
 40
1.0
 40
1.0
 40
1.0
 10
93.0680172689
 20
206.6207599224
 30
0.0
 10
93.0680172689
 20
210.4213187327
 30
0.0
 10
93.8561145825
 20
218.3551972794
 30
0.0
 10
96.9479157817
 20
230.262630043
 30
0.0
 10
101.8571227891
 20
242.2078171955
 30
0.0
 10
106.1999311016
 20
249.8398082293
 30
0.0
 10
108.624366455
 20
253.5302246947
 30
0.0
  0
SPLINE
  5
33F
100
AcDbEntity
  8
0
100
AcDbSpline
 62
3
  6
CONTINUOUS
 70
0
 71
3
 72
11
 73
7
 74
0
 42
0.0000001
 43
0.0000001
 44
0.0000000001
 40
0.0
 40
0.0
 40
0.0
 40
0.0
 40
0.2278631129
 40
0.4751886916
 40
0.7352651365
 40
1.0
 40
1.0
 40
1.0
 40
1.0
 10
92.0073570971
 20
207.2321587219
 30
0.0
 10
92.0073570971
 20
211.0327175322
 30
0.0
 10
92.7954544107
 20
218.9665960789
 30
0.0
 10
95.8872556099
 20
230.8740288425
 30
0.0
 10
100.7964626173
 20
242.819215995
 30
0.0
 10
105.1392709298
 20
250.4512070288
 30
0.0
 10
107.5637062832
 20
254.1416234942
 30
0.0
  0
SPLINE
  5
340
100
AcDbEntity
  8
0
100
AcDbSpline
 62
3
  6
CONTINUOUS
 70
0
 71
3
 72
14
 73
10
 74
0
 42
0.0000001
 43
0.0000001
 44
0.0000000001
 40
0.0
 40
0.0
 40
0.0
 40
0.0
 40
0.1080426084
 40
0.2181250096
 40
0.3320989621
 40
0.4514973031
 40
0.5774607456
 40
0.7107304485
 40
1.0
 40
1.0
 40
1.0
 40
1.0
 10
104.4692900784
 20
73.4772518411
 30
0.0
 10
103.4829351703
 20
74.0458350892
 30
0.0
 10
101.5864319844
 20
75.3675017779
 30
0.0
 10
99.0803738463
 20
77.8314182542
 30
0.0
 10
96.9249284606
 20
80.7564738896
 30
0.0
 10
95.1401913594
 20
84.1095722092
 30
0.0
 10
93.7399148816
 20
87.8569707722
 30
0.0
 10
92.3635127075
 20
93.4807156612
 30
0.0
 10
92.0073570971
 20
97.9551405429
 30
0.0
 10
92.0073570971
 20
101.0033219383
 30
0.0
  0
SPLINE
  5
341
100
AcDbEntity
  8
0
100
AcDbSpline
 62
3
  6
CONTINUOUS
 70
0
 71
3
 72
13
 73
9
 74
0
 42
0.0000001
 43
0.0000001
 44
0.0000000001
 40
0.0
 40
0.0
 40
0.0
 40
0.0
 40
0.3263351171
 40
0.5993590058
 40
0.7148158149
 40
0.8186375721
 40
0.913461232
 40
1.0
 40
1.0
 40
1.0
 40
1.0
 10
107.5637062832
 20
254.1416234942
 30
0.0
 10
107.864962922
 20
254.6001890148
 30
0.0
 10
108.5405195804
 20
255.370218218
 30
0.0
 10
109.5848144552
 20
256.0101156647
 30
0.0
 10
110.385364028
 20
256.2375247422
 30
0.0
 10
110.9156631473
 20
256.2798498437
 30
0.0
 10
111.394566463
 20
256.2118975328
 30
0.0
 10
111.6802917973
 20
256.0947197597
 30
0.0
 10
111.8063469703
 20
256.0220574843
 30
0.0
  0
SPLINE
  5
342
100
AcDbEntity
  8
0
100
AcDbSpline
 62
3
  6
CONTINUOUS
 70
0
 71
3
 72
9
 73
5
 74
0
 42
0.0000001
 43
0.0000001
 44
0.0000000001
 40
0.0
 40
0.0
 40
0.0
 40
0.0
 40
0.5401086493
 40
1.0
 40
1.0
 40
1.0
 40
1.0
 10
113.2205605327
 20
255.206859085
 30
0.0
 10
113.5307900722
 20
255.028032753
 30
0.0
 10
114.1454763502
 20
254.7570173431
 30
0.0
 10
114.8269275013
 20
254.703598577
 30
0.0
 10
115.1278061822
 20
254.7529401712
 30
0.0
  0
SPLINE
  5
343
100
AcDbEntity
  8
0
100
AcDbSpline
 62
7
  6
CONTINUOUS
 70
0
 71
3
 72
11
 73
7
 74
0
 42
0.0000001
 43
0.0000001
 44
0.0000000001
 40
0.0
 40
0.0
 40
0.0
 40
0.0
 40
0.3384096834
 40
0.6083059429
 40
0.8200988308
 40
1.0
 40
1.0
 40
1.0
 40
1.0
 10
408.2855950208
 20
193.9375383091
 30
0.0
 10
408.2855950208
 20
193.5975877006
 30
0.0
 10
408.2099861072
 20
192.981422051
 30
0.0
 10
407.8615428648
 20
192.2178865998
 30
0.0
 10
407.3646479402
 20
191.7462077712
 30
0.0
 10
406.9663153576
 20
191.6363136501
 30
0.0
 10
406.7855950208
 20
191.6363136501
 30
0.0
  0
SPLINE
  5
344
100
AcDbEntity
  8
0
100
AcDbSpline
 62
7
  6
CONTINUOUS
 70
0
 71
3
 72
11
 73
7
 74
0
 42
0.0000001
 43
0.0000001
 44
0.0000000001
 40
0.0
 40
0.0
 40
0.0
 40
0.0
 40
0.1799011692
 40
0.3916940571
 40
0.6615903166
 40
1.0
 40
1.0
 40
1.0
 40
1.0
 10
406.7855950208
 20
419.1042570981
 30
0.0
 10
406.9663153576
 20
419.1042570981
 30
0.0
 10
407.3646479402
 20
418.994362977
 30
0.0
 10
407.8615428648
 20
418.5226841484
 30
0.0
 10
408.2099861072
 20
417.7591486972
 30
0.0
 10
408.2855950208
 20
417.1429830476
 30
0.0
 10
408.2855950208
 20
416.8030324391
 30
0.0
  0
SPLINE
  5
345
100
AcDbEntity
  8
0
100
AcDbSpline
 62
3
  6
CONTINUOUS
 70
0
 71
3
 72
13
 73
9
 74
0
 42
0.0000001
 43
0.0000001
 44
0.0000000001
 40
0.0
 40
0.0
 40
0.0
 40
0.0
 40
0.1285770525
 40
0.2526477725
 40
0.3745514701
 40
0.4981105911
 40
0.747413148
 40
1.0
 40
1.0
 40
1.0
 40
1.0
 10
409.7855950208
 20
193.9375383091
 30
0.0
 10
409.7855950208
 20
193.7579883442
 30
0.0
 10
409.7371463192
 20
193.4030332691
 30
0.0
 10
409.5246486863
 20
192.9184708687
 30
0.0
 10
409.2013215493
 20
192.5099187519
 30
0.0
 10
408.6610593664
 20
192.0720493506
 30
0.0
 10
407.8420963842
 20
191.7237870377
 30
0.0
 10
407.1383170619
 20
191.6363136501
 30
0.0
 10
406.7855950208
 20
191.6363136501
 30
0.0
  0
SPLINE
  5
346
100
AcDbEntity
  8
0
100
AcDbSpline
 62
3
  6
CONTINUOUS
 70
0
 71
3
 72
13
 73
9
 74
0
 42
0.0000001
 43
0.0000001
 44
0.0000000001
 40
0.0
 40
0.0
 40
0.0
 40
0.0
 40
0.252586852
 40
0.5018894089
 40
0.6254485299
 40
0.7473522275
 40
0.8714229475
 40
1.0
 40
1.0
 40
1.0
 40
1.0
 10
406.7855950208
 20
419.1042570981
 30
0.0
 10
407.1383170619
 20
419.1042570981
 30
0.0
 10
407.8420963842
 20
419.0167837105
 30
0.0
 10
408.6610593664
 20
418.6685213976
 30
0.0
 10
409.2013215493
 20
418.2306519963
 30
0.0
 10
409.5246486863
 20
417.8220998795
 30
0.0
 10
409.7371463192
 20
417.3375374791
 30
0.0
 10
409.7855950208
 20
416.982582404
 30
0.0
 10
409.7855950208
 20
416.8030324391
 30
0.0
  0
SPLINE
  5
347
100
AcDbEntity
  8
0
100
AcDbSpline
 62
7
  6
CONTINUOUS
 70
0
 71
3
 72
11
 73
7
 74
0
 42
0.0000001
 43
0.0000001
 44
0.0000000001
 40
0.0
 40
0.0
 40
0.0
 40
0.0
 40
0.1810533153
 40
0.3953231689
 40
0.66660455
 40
1.0
 40
1.0
 40
1.0
 40
1.0
 10
177.1945509698
 20
318.878354442
 30
0.0
 10
176.9534781299
 20
318.878354442
 30
0.0
 10
176.4241950941
 20
318.9893199381
 30
0.0
 10
175.6578904511
 20
319.458054391
 30
0.0
 10
174.8663944352
 20
320.2144528295
 30
0.0
 10
174.3519037125
 20
320.8345462013
 30
0.0
 10
174.0725932703
 20
321.1795791011
 30
0.0
  0
SPLINE
  5
348
100
AcDbEntity
  8
0
100
AcDbSpline
 62
7
  6
CONTINUOUS
 70
0
 71
3
 72
11
 73
7
 74
0
 42
0.0000001
 43
0.0000001
 44
0.0000000001
 40
0.0
 40
0.0
 40
0.0
 40
0.0
 40
0.33339545
 40
0.6046768311
 40
0.8189466847
 40
1.0
 40
1.0
 40
1.0
 40
1.0
 10
174.0725932703
 20
544.0450732311
 30
0.0
 10
174.3519037125
 20
544.3901061308
 30
0.0
 10
174.8663944352
 20
545.0101995026
 30
0.0
 10
175.6578904511
 20
545.7665979412
 30
0.0
 10
176.4241950941
 20
546.235332394
 30
0.0
 10
176.9534781299
 20
546.3462978901
 30
0.0
 10
177.1945509698
 20
546.3462978901
 30
0.0
  0
ENDSEC
  0
SECTION
  2
OBJECTS
  0
DICTIONARY
  5
C
100
AcDbDictionary
280
0
281
1
  3
ACAD_GROUP
350
D
  3
ACAD_MLINESTYLE
350
17
  3
ACAD_LAYOUT
350
1A
  3
ACAD_PLOTSETTINGS
350
19
  3
ACAD_PLOTSTYLENAME
350
E
  0
DICTIONARY
  5
D
102
{ACAD_REACTORS
330
C
102
}
100
AcDbDictionary
280
0
281
1
  0
ACDBDICTIONARYWDFLT
  5
E
102
{ACAD_REACTORS
330
C
102
}
100
AcDbDictionary
281
1
  3
Normal
350
F
100
AcDbDictionaryWithDefault
340
F
  0
DICTIONARY
  5
17
102
{ACAD_REACTORS
330
C
102
}
100
AcDbDictionary
280
0
281
1
  3
Standard
350
18
  0
DICTIONARY
  5
19
102
{ACAD_REACTORS
330
C
102
}
100
AcDbDictionary
281
1
  0
DICTIONARY
  5
1A
102
{ACAD_REACTORS
330
C
102
}
100
AcDbDictionary
281
1
  3
Model
350
349
  3
Layout1
350
34A
  0
ACDBPLACEHOLDER
  5
F
102
{ACAD_REACTORS
330
E
102
}
  0
MLINESTYLE
  5
18
102
{ACAD_REACTORS
330
17
102
}
100
AcDbMlineStyle
  2
STANDARD
 70
0
  3

 62
256
 51
90.0
 52
90.0
 71
2
 49
0.5
 62
256
  6
BYLAYER
 49
-0.5
 62
256
  6
BYLAYER
  0
LAYOUT
  5
349
102
{ACAD_REACTORS
330
1A
102
}
100
AcDbPlotSettings
  1

  2
none_device
  4
ISO_A3_(420.00_x_297.00_MM)
  6

 40
0.0
 41
0.0
 42
0.0
 43
0.0
 44
420.0
 45
297.0
 46
0.0
 47
0.0
 48
0.0
 49
0.0
140
0.0
141
0.0
142
1.0
143
1.0
 70
1024
 72
1
 73
0
 74
0
  7

 75
0
147
1.0
148
0.0
149
0.0
100
AcDbLayout
  1
Model
 70
0
 71
0
 10
0.0
 20
0.0
 11
420.0
 21
297.0
 12
0.0
 22
0.0
 32
0.0
 14
0.0
 24
0.0
 34
0.0
 15
0.0
 25
0.0
 35
0.0
146
0.0
 13
0.0
 23
0.0
 33
0.0
 16
1.0
 26
0.0
 36
0.0
 17
0.0
 27
1.0
 37
0.0
 76
0
330
20C
345
0
346
0
  0
LAYOUT
  5
34A
102
{ACAD_REACTORS
330
1A
102
}
100
AcDbPlotSettings
  1

  2
none_device
  4
ISO_A3_(420.00_x_297.00_MM)
  6

 40
0.0
 41
0.0
 42
0.0
 43
0.0
 44
420.0
 45
297.0
 46
0.0
 47
0.0
 48
0.0
 49
0.0
140
0.0
141
0.0
142
1.0
143
1.0
 70
0
 72
1
 73
0
 74
0
  7

 75
0
147
1.0
148
0.0
149
0.0
100
AcDbLayout
  1
Layout1
 70
0
 71
1
 10
0.0
 20
0.0
 11
420.0
 21
297.0
 12
0.0
 22
0.0
 32
0.0
 14
0.0
 24
0.0
 34
0.0
 15
0.0
 25
0.0
 35
0.0
146
0.0
 13
0.0
 23
0.0
 33
0.0
 16
1.0
 26
0.0
 36
0.0
 17
0.0
 27
1.0
 37
0.0
 76
0
330
20D
345
0
346
0
  0
ENDSEC
  0
EOF
