999
DXF file: boite6_tole.dxf
999
Pro/ENGINEER 2021424 by Parametric Technology Corporation
  0
SECTION
  2
HEADER
  9
$ACADVER
  1
AC1024
  9
$DWGCODEPAGE
  3
ANSI_1252
  9
$EXTMAX
 10
1680.0
 20
1188.0
 30
0.0
  9
$EXTMIN
 10
0.0
 20
0.0
 30
0.0
  9
$LIMMIN
 10
0.0
 20
0.0
  9
$LIMMAX
 10
1680.0
 20
1188.0
  9
$VIEWCTR
 10
840.0
 20
594.0
  9
$VIEWSIZE
 40
1188.0
  9
$CLAYER
  8
0
  9
$LTSCALE
 40
92.4
  9
$CELTYPE
  6
BYLAYER
  9
$DIMSCALE
 40
1.0
  9
$DIMASZ
 40
14.0
  9
$DIMEXO
 40
0.0
  9
$DIMDLI
 40
63.84
  9
$DIMEXE
 40
1.5
  9
$DIMCEN
 40
15.12
  9
$DIMLFAC
 40
1.0
  9
$DIMBLK
  1
_FILLED
  9
$DIMALT
 70
0
  9
$DIMALTF
 40
0.0393700787
  9
$DIMTXT
 40
14.0
  9
$DIMTOL
 70
1
  9
$DIMLIM
 70
0
  9
$DIMTFAC
 40
1.0
  9
$DIMTP
 40
0.01
  9
$DIMTM
 40
0.01
  9
$DIMGAP
 40
0.625
  9
$DIMDSEP
 70
46
  9
$AUNITS
 70
0
  9
$PDMODE
 70
3
  9
$PDSIZE
 40
2.5
  9
$HANDSEED
  5
5AE
  9
$TILEMODE
 70
1
  9
$MEASUREMENT
 70
1
  9
$INSUNITS
 70
4
  0
ENDSEC
  0
SECTION
  2
CLASSES
  0
CLASS
  1
ACDBDICTIONARYWDFLT
  2
AcDbDictionaryWithDefault
  3
AutoCAD 2000
 90
0
 91
1
280
0
281
0
  0
CLASS
  1
ACDBPLACEHOLDER
  2
AcDbPlaceHolder
  3
AutoCAD 2000
 90
0
 91
1
280
0
281
0
  0
CLASS
  1
LAYOUT
  2
AcDbLayout
  3
AutoCAD 2000
 90
0
 91
0
280
0
281
0
  0
ENDSEC
  0
SECTION
  2
TABLES
  0
TABLE
  2
VPORT
  5
8
100
AcDbSymbolTable
 70
2
  0
VPORT
  5
1F4
100
AcDbSymbolTableRecord
100
AcDbViewportTableRecord
  2
*ACTIVE
 70
0
 10
0.0
 20
0.0
 11
1.0
 21
1.0
 12
840.0
 22
594.0
 13
0.0
 23
0.0
 14
1.0
 24
1.0
 15
0.0
 25
0.0
 16
0.0
 26
0.0
 36
1.0
 17
0.0
 27
0.0
 37
0.0
 40
1188.0
 41
1.4141414141
 42
50.0
 43
0.0
 44
0.0
 50
0.0
 51
0.0
 71
0
 72
100
 73
1
 74
1
 75
0
 76
0
 77
0
 78
0
  0
ENDTAB
  0
TABLE
  2
LTYPE
  5
5
100
AcDbSymbolTable
 70
6
  0
LTYPE
  5
14
100
AcDbSymbolTableRecord
100
AcDbLinetypeTableRecord
  2
BYBLOCK
 70
0
  3

 72
65
 73
0
 40
0.0
  0
LTYPE
  5
15
100
AcDbSymbolTableRecord
100
AcDbLinetypeTableRecord
  2
BYLAYER
 70
0
  3

 72
65
 73
0
 40
0.0
  0
LTYPE
  5
16
100
AcDbSymbolTableRecord
100
AcDbLinetypeTableRecord
  2
CONTINUOUS
 70
64
  3
Solid line
 72
65
 73
0
 40
0.0
  0
LTYPE
  5
1F5
100
AcDbSymbolTableRecord
100
AcDbLinetypeTableRecord
  2
CENTER
 70
64
  3
____ _ ____ _ ____ _ ____ _ ____ _ ____ _ ____
 72
65
 73
4
 40
0.6
 49
0.375
 74
0
 49
-0.075
 74
0
 49
0.075
 74
0
 49
-0.075
 74
0
  0
LTYPE
  5
1F6
100
AcDbSymbolTableRecord
100
AcDbLinetypeTableRecord
  2
HIDDEN
 70
64
  3
- - - - - - - - - - - - - - - - - - - -
 72
65
 73
2
 40
0.2
 49
0.1
 74
0
 49
-0.1
 74
0
  0
LTYPE
  5
1F7
100
AcDbSymbolTableRecord
100
AcDbLinetypeTableRecord
  2
PHANTOM
 70
64
  3
_____ _ _ _____ _ _ _____ _ _ _____
 72
65
 73
6
 40
0.8
 49
0.45
 74
0
 49
-0.05
 74
0
 49
0.1
 74
0
 49
-0.05
 74
0
 49
0.1
 74
0
 49
-0.05
 74
0
  0
LTYPE
  5
1F8
100
AcDbSymbolTableRecord
100
AcDbLinetypeTableRecord
  2
DOT
 70
64
  3
. . . . . . . . . . . . . . . . . . . .
 72
65
 73
2
 40
0.2
 49
0.1
 74
0
 49
-0.1
 74
0
  0
LTYPE
  5
1F9
100
AcDbSymbolTableRecord
100
AcDbLinetypeTableRecord
  2
DASHED
 70
64
  3
- - - - - - - - - - - - - - - - - - - -
 72
65
 73
2
 40
0.2
 49
0.1
 74
0
 49
-0.1
 74
0
  0
ENDTAB
  0
TABLE
  2
LAYER
  5
2
100
AcDbSymbolTable
 70
36
  0
LAYER
  5
10
100
AcDbSymbolTableRecord
100
AcDbLayerTableRecord
  2
0
 70
0
 62
7
  6
CONTINUOUS
370
-3
390
F
  0
LAYER
  5
1FA
100
AcDbSymbolTableRecord
100
AcDbLayerTableRecord
  2
DEFAULT_1
 70
0
 62
7
  6
CENTER
370
-3
390
F
  0
LAYER
  5
1FB
100
AcDbSymbolTableRecord
100
AcDbLayerTableRecord
  2
DEFAULT_2
 70
0
 62
8
  6
HIDDEN
370
-3
390
F
  0
LAYER
  5
1FC
100
AcDbSymbolTableRecord
100
AcDbLayerTableRecord
  2
DEFAULT_3
 70
0
 62
7
  6
PHANTOM
370
-3
390
F
  0
LAYER
  5
1FD
100
AcDbSymbolTableRecord
100
AcDbLayerTableRecord
  2
ASSY__MEMBER
 70
0
 62
7
  6
CONTINUOUS
370
-3
390
F
  0
LAYER
  5
1FE
100
AcDbSymbolTableRecord
100
AcDbLayerTableRecord
  2
AXES
 70
0
 62
7
  6
CONTINUOUS
370
-3
390
F
  0
LAYER
  5
1FF
100
AcDbSymbolTableRecord
100
AcDbLayerTableRecord
  2
CENTER_OF_GRAVITY
 70
0
 62
7
  6
CONTINUOUS
370
-3
390
F
  0
LAYER
  5
200
100
AcDbSymbolTableRecord
100
AcDbLayerTableRecord
  2
COORD_SYS
 70
0
 62
7
  6
CONTINUOUS
370
-3
390
F
  0
LAYER
  5
201
100
AcDbSymbolTableRecord
100
AcDbLayerTableRecord
  2
COPY_GEOM
 70
0
 62
7
  6
CONTINUOUS
370
-3
390
F
  0
LAYER
  5
202
100
AcDbSymbolTableRecord
100
AcDbLayerTableRecord
  2
COSMETICS
 70
0
 62
7
  6
CONTINUOUS
370
-3
390
F
  0
LAYER
  5
203
100
AcDbSymbolTableRecord
100
AcDbLayerTableRecord
  2
CURVES
 70
0
 62
7
  6
CONTINUOUS
370
-3
390
F
  0
LAYER
  5
204
100
AcDbSymbolTableRecord
100
AcDbLayerTableRecord
  2
DATUM_PLANES
 70
0
 62
7
  6
CONTINUOUS
370
-3
390
F
  0
LAYER
  5
205
100
AcDbSymbolTableRecord
100
AcDbLayerTableRecord
  2
DRAWING_VIEW_ORIGIN
 70
0
 62
7
  6
CONTINUOUS
370
-3
390
F
  0
LAYER
  5
206
100
AcDbSymbolTableRecord
100
AcDbLayerTableRecord
  2
NOTES
 70
0
 62
7
  6
CONTINUOUS
370
-3
390
F
  0
LAYER
  5
207
100
AcDbSymbolTableRecord
100
AcDbLayerTableRecord
  2
POINTS
 70
0
 62
7
  6
CONTINUOUS
370
-3
390
F
  0
LAYER
  5
208
100
AcDbSymbolTableRecord
100
AcDbLayerTableRecord
  2
SURFACES
 70
0
 62
7
  6
CONTINUOUS
370
-3
390
F
  0
LAYER
  5
209
100
AcDbSymbolTableRecord
100
AcDbLayerTableRecord
  2
TEXTE-NOTES
 70
0
 62
7
  6
CONTINUOUS
370
-3
390
F
  0
LAYER
  5
20A
100
AcDbSymbolTableRecord
100
AcDbLayerTableRecord
  2
THREAD
 70
0
 62
7
  6
CONTINUOUS
370
-3
390
F
  0
ENDTAB
  0
TABLE
  2
STYLE
  5
3
100
AcDbSymbolTable
 70
1
  0
STYLE
  5
11
100
AcDbSymbolTableRecord
100
AcDbTextStyleTableRecord
  2
STANDARD
 70
0
 40
0.0
 41
0.7
 50
0.0
 71
0
 42
0.2
  3
txt
  4

  0
STYLE
  5
20B
100
AcDbSymbolTableRecord
100
AcDbTextStyleTableRecord
  2
TEXTSTYLE_1
 70
0
 40
0.0
 41
0.8
 50
0.0
 71
0
 42
0.2
  3
gdt
  4

  0
STYLE
  5
20C
100
AcDbSymbolTableRecord
100
AcDbTextStyleTableRecord
  2
TEXTSTYLE_2
 70
0
 40
0.0
 41
1.0
 50
0.0
 71
0
 42
0.2
  3
symbol_asme.ttf
  4

1001
ACAD
1000
Symbol_ASME
1071
34
  0
ENDTAB
  0
TABLE
  2
VIEW
  5
6
100
AcDbSymbolTable
 70
0
  0
ENDTAB
  0
TABLE
  2
UCS
  5
7
100
AcDbSymbolTable
 70
0
  0
ENDTAB
  0
TABLE
  2
APPID
  5
9
100
AcDbSymbolTable
 70
1
  0
APPID
  5
20D
100
AcDbSymbolTableRecord
100
AcDbRegAppTableRecord
  2
ACAD
 70
0
  0
ENDTAB
  0
TABLE
  2
BLOCK_RECORD
  5
1
100
AcDbSymbolTable
 70
0
  0
BLOCK_RECORD
  5
20E
100
AcDbSymbolTableRecord
100
AcDbBlockTableRecord
  2
*Model_Space
  0
BLOCK_RECORD
  5
20F
100
AcDbSymbolTableRecord
100
AcDbBlockTableRecord
  2
*Paper_Space
  0
BLOCK_RECORD
  5
210
100
AcDbSymbolTableRecord
100
AcDbBlockTableRecord
  2
_FILLED
  0
BLOCK_RECORD
  5
211
100
AcDbSymbolTableRecord
100
AcDbBlockTableRecord
  2
*D0
  0
BLOCK_RECORD
  5
212
100
AcDbSymbolTableRecord
100
AcDbBlockTableRecord
  2
*D1
  0
BLOCK_RECORD
  5
213
100
AcDbSymbolTableRecord
100
AcDbBlockTableRecord
  2
*D2
  0
BLOCK_RECORD
  5
214
100
AcDbSymbolTableRecord
100
AcDbBlockTableRecord
  2
*D3
  0
BLOCK_RECORD
  5
215
100
AcDbSymbolTableRecord
100
AcDbBlockTableRecord
  2
*D4
  0
BLOCK_RECORD
  5
216
100
AcDbSymbolTableRecord
100
AcDbBlockTableRecord
  2
*D5
  0
BLOCK_RECORD
  5
217
100
AcDbSymbolTableRecord
100
AcDbBlockTableRecord
  2
*D6
  0
BLOCK_RECORD
  5
218
100
AcDbSymbolTableRecord
100
AcDbBlockTableRecord
  2
*D7
  0
BLOCK_RECORD
  5
219
100
AcDbSymbolTableRecord
100
AcDbBlockTableRecord
  2
*D8
  0
BLOCK_RECORD
  5
21A
100
AcDbSymbolTableRecord
100
AcDbBlockTableRecord
  2
*D9
  0
BLOCK_RECORD
  5
21B
100
AcDbSymbolTableRecord
100
AcDbBlockTableRecord
  2
*D10
  0
BLOCK_RECORD
  5
21C
100
AcDbSymbolTableRecord
100
AcDbBlockTableRecord
  2
*D11
  0
BLOCK_RECORD
  5
21D
100
AcDbSymbolTableRecord
100
AcDbBlockTableRecord
  2
*D12
  0
BLOCK_RECORD
  5
21E
100
AcDbSymbolTableRecord
100
AcDbBlockTableRecord
  2
*D13
  0
BLOCK_RECORD
  5
21F
100
AcDbSymbolTableRecord
100
AcDbBlockTableRecord
  2
*D14
  0
BLOCK_RECORD
  5
220
100
AcDbSymbolTableRecord
100
AcDbBlockTableRecord
  2
*D15
  0
BLOCK_RECORD
  5
221
100
AcDbSymbolTableRecord
100
AcDbBlockTableRecord
  2
*D16
  0
BLOCK_RECORD
  5
222
100
AcDbSymbolTableRecord
100
AcDbBlockTableRecord
  2
*D17
  0
BLOCK_RECORD
  5
223
100
AcDbSymbolTableRecord
100
AcDbBlockTableRecord
  2
*D18
  0
BLOCK_RECORD
  5
224
100
AcDbSymbolTableRecord
100
AcDbBlockTableRecord
  2
*D19
  0
BLOCK_RECORD
  5
225
100
AcDbSymbolTableRecord
100
AcDbBlockTableRecord
  2
*D20
  0
BLOCK_RECORD
  5
226
100
AcDbSymbolTableRecord
100
AcDbBlockTableRecord
  2
08029_BL3
  0
BLOCK_RECORD
  5
227
100
AcDbSymbolTableRecord
100
AcDbBlockTableRecord
  2
07001_BL2
  0
BLOCK_RECORD
  5
228
100
AcDbSymbolTableRecord
100
AcDbBlockTableRecord
  2
07005_BL1
  0
BLOCK_RECORD
  5
229
100
AcDbSymbolTableRecord
100
AcDbBlockTableRecord
  2
DICKE_BL0
  0
ENDTAB
  0
TABLE
  2
DIMSTYLE
  5
A
100
AcDbSymbolTable
 70
1
100
AcDbDimStyleTable
 71
0
  0
DIMSTYLE
105
22A
100
AcDbSymbolTableRecord
100
AcDbDimStyleTableRecord
  2
STANDARD
 70
0
  3

  4

 40
1.0
 41
14.0
 42
0.0
 43
0.38
 44
1.5
 45
0.0
 46
0.0
 47
0.01
 48
0.01
140
14.0
141
0.09
142
0.0
143
25.4
144
1.0
145
0.0
146
1.0
147
0.625
 71
1
 72
0
 73
0
 74
0
 75
0
 76
0
 77
1
 78
8
 79
2
170
0
171
1
172
0
173
0
174
0
175
0
176
0
177
0
178
5
270
2
179
2
271
2
272
2
273
2
274
2
275
0
280
0
281
0
282
0
283
1
284
8
285
0
286
0
287
3
288
0
340
11
278
46
341
210
342
210
343
210
344
210
  0
DIMSTYLE
105
22B
100
AcDbSymbolTableRecord
100
AcDbDimStyleTableRecord
  2
DIMSTYLE_1
 70
0
  3

  4

 40
1.0
 41
14.0
 42
0.0
 43
0.38
 44
1.5
 45
0.0
 46
0.0
 47
0.8
 48
0.8
140
14.0
141
0.09
142
0.0
143
25.4
144
1.0
145
0.0
146
1.0
147
0.875
 71
0
 72
0
 73
0
 74
0
 75
0
 76
0
 77
1
 78
8
 79
2
170
0
171
1
172
0
173
0
174
0
175
0
176
0
177
0
178
5
270
2
179
2
271
2
272
2
273
2
274
2
275
0
280
0
281
0
282
0
283
1
284
8
285
0
286
0
287
3
288
0
340
11
278
46
341
210
342
210
343
210
344
210
  0
DIMSTYLE
105
22C
100
AcDbSymbolTableRecord
100
AcDbDimStyleTableRecord
  2
DIMSTYLE_2
 70
0
  3

  4

 40
1.0
 41
14.0
 42
0.0
 43
0.38
 44
1.5
 45
0.0
 46
0.0
 47
0.5
 48
0.5
140
14.0
141
0.09
142
0.0
143
25.4
144
1.0
145
0.0
146
1.0
147
0.875
 71
0
 72
0
 73
0
 74
0
 75
0
 76
0
 77
1
 78
8
 79
2
170
0
171
1
172
0
173
0
174
0
175
0
176
0
177
0
178
5
270
2
179
2
271
2
272
2
273
2
274
2
275
0
280
0
281
0
282
0
283
1
284
8
285
0
286
0
287
3
288
0
340
11
278
46
341
210
342
210
343
210
344
210
  0
DIMSTYLE
105
22D
100
AcDbSymbolTableRecord
100
AcDbDimStyleTableRecord
  2
DIMSTYLE_3
 70
0
  3

  4

 40
1.0
 41
14.0
 42
0.0
 43
0.38
 44
1.5
 45
0.0
 46
0.0
 47
0.5
 48
0.5
140
14.0
141
0.09
142
0.0
143
25.4
144
1.0
145
0.0
146
1.0
147
0.875
 71
0
 72
0
 73
0
 74
0
 75
0
 76
0
 77
1
 78
8
 79
2
170
0
171
1
172
0
173
0
174
0
175
0
176
0
177
0
178
5
270
2
179
2
271
0
272
0
273
2
274
2
275
0
280
0
281
0
282
0
283
1
284
8
285
0
286
0
287
3
288
0
340
11
278
46
341
210
342
210
343
210
344
210
  0
DIMSTYLE
105
22E
100
AcDbSymbolTableRecord
100
AcDbDimStyleTableRecord
  2
DIMSTYLE_4
 70
0
  3

  4

 40
1.0
 41
14.0
 42
0.0
 43
0.38
 44
1.5
 45
0.0
 46
0.0
 47
0.5
 48
0.5
140
14.0
141
0.09
142
0.0
143
25.4
144
1.0
145
0.0
146
1.0
147
3.5
 71
0
 72
0
 73
0
 74
0
 75
0
 76
0
 77
1
 78
8
 79
2
170
0
171
1
172
0
173
0
174
0
175
0
176
0
177
0
178
5
270
2
179
2
271
1
272
-1
273
2
274
2
275
0
280
0
281
0
282
0
283
1
284
8
285
0
286
0
287
3
288
0
340
11
278
46
341
210
342
210
343
210
344
210
  0
DIMSTYLE
105
22F
100
AcDbSymbolTableRecord
100
AcDbDimStyleTableRecord
  2
DIMSTYLE_5
 70
0
  3

  4

 40
1.0
 41
14.0
 42
0.0
 43
0.38
 44
1.5
 45
0.0
 46
0.0
 47
0.3
 48
0.3
140
14.0
141
0.09
142
0.0
143
25.4
144
1.0
145
0.0
146
1.0
147
0.875
 71
0
 72
0
 73
0
 74
0
 75
0
 76
0
 77
1
 78
8
 79
2
170
0
171
1
172
0
173
0
174
0
175
0
176
0
177
0
178
5
270
2
179
2
271
2
272
2
273
2
274
2
275
0
280
0
281
0
282
0
283
1
284
8
285
0
286
0
287
3
288
0
340
11
278
46
341
210
342
210
343
210
344
210
  0
DIMSTYLE
105
230
100
AcDbSymbolTableRecord
100
AcDbDimStyleTableRecord
  2
DIMSTYLE_6
 70
0
  3
<>
  4

 40
1.0
 41
14.0
 42
0.0
 43
0.38
 44
1.5
 45
0.0
 46
0.0
 47
0.2
 48
0.2
140
14.0
141
0.09
142
0.0
143
25.4
144
1.0
145
0.0
146
1.0
147
0.625
 71
0
 72
0
 73
0
 74
0
 75
0
 76
0
 77
1
 78
8
 79
2
170
0
171
1
172
0
173
0
174
0
175
0
176
0
177
0
178
5
270
2
179
2
271
2
272
2
273
2
274
2
275
0
280
0
281
0
282
0
283
1
284
8
285
0
286
0
287
3
288
1
340
11
278
46
289
1
341
210
342
210
343
210
344
210
  0
DIMSTYLE
105
231
100
AcDbSymbolTableRecord
100
AcDbDimStyleTableRecord
  2
DIMSTYLE_7
 70
0
  3

  4

 40
1.0
 41
14.0
 42
0.0
 43
0.38
 44
1.5
 45
0.0
 46
0.0
 47
0.3
 48
0.3
140
14.0
141
0.09
142
0.0
143
25.4
144
1.0
145
0.0
146
1.0
147
0.875
 71
0
 72
0
 73
0
 74
0
 75
0
 76
0
 77
1
 78
8
 79
2
170
0
171
1
172
0
173
0
174
0
175
0
176
0
177
0
178
5
270
2
179
2
271
1
272
1
273
2
274
2
275
0
280
0
281
0
282
0
283
1
284
8
285
0
286
0
287
3
288
0
340
11
278
46
341
210
342
210
343
210
344
210
  0
DIMSTYLE
105
232
100
AcDbSymbolTableRecord
100
AcDbDimStyleTableRecord
  2
DIMSTYLE_8
 70
0
  3

  4

 40
1.0
 41
14.0
 42
0.0
 43
0.38
 44
1.5
 45
0.0
 46
0.0
 47
0.3
 48
0.3
140
14.0
141
0.09
142
0.0
143
25.4
144
1.0
145
0.0
146
1.0
147
0.875
 71
0
 72
0
 73
0
 74
0
 75
0
 76
0
 77
1
 78
8
 79
2
170
0
171
1
172
0
173
0
174
0
175
0
176
0
177
0
178
5
270
2
179
2
271
0
272
0
273
2
274
2
275
0
280
0
281
0
282
0
283
1
284
8
285
0
286
0
287
3
288
0
340
11
278
46
341
210
342
210
343
210
344
210
  0
ENDTAB
  0
ENDSEC
  0
SECTION
  2
BLOCKS
  0
BLOCK
  5
20
100
AcDbEntity
  8
0
100
AcDbBlockBegin
  2
*Model_Space
 70
0
 10
0.0
 20
0.0
 30
0.0
  3
*Model_Space
  1

  0
ENDBLK
  5
21
100
AcDbEntity
  8
0
100
AcDbBlockEnd
  0
BLOCK
  5
1C
100
AcDbEntity
  8
0
100
AcDbBlockBegin
  2
*Paper_Space
 70
0
 10
0.0
 20
0.0
 30
0.0
  3
*Paper_Space
  1

  0
ENDBLK
  5
1D
100
AcDbEntity
  8
0
100
AcDbBlockEnd
  0
BLOCK
  5
233
100
AcDbEntity
  8
0
100
AcDbBlockBegin
 62
2
  6
CONTINUOUS
  2
08029_BL3
 70
64
 10
641.6945537226
 20
483.5110349141
  3
08029_BL3
  1

  0
TEXT
  5
234
100
AcDbEntity
  8
0
100
AcDbText
 62
5
  6
CONTINUOUS
 10
633.7777004261
 20
468.9098783325
  7
STANDARD
 40
32.0
  1
*
 41
0.6666666667
 72
0
100
AcDbText
  0
LINE
  5
235
100
AcDbEntity
  8
0
100
AcDbLine
 62
5
  6
CONTINUOUS
 10
627.2738385232
 20
500.5616778053
 11
656.115268922
 21
500.5616778053
  0
LINE
  5
236
100
AcDbEntity
  8
0
100
AcDbLine
 62
5
  6
CONTINUOUS
 10
656.115268922
 20
483.3369346505
 11
656.115268922
 21
466.1121914957
  0
LINE
  5
237
100
AcDbEntity
  8
0
100
AcDbLine
 62
5
  6
CONTINUOUS
 10
656.115268922
 20
466.1121914957
 11
627.2738385232
 21
466.1121914957
  0
LINE
  5
238
100
AcDbEntity
  8
0
100
AcDbLine
 62
5
  6
CONTINUOUS
 10
627.2738385232
 20
466.1121914957
 11
627.2738385232
 21
500.5616778053
  0
LINE
  5
239
100
AcDbEntity
  8
0
100
AcDbLine
 62
5
  6
CONTINUOUS
 10
656.115268922
 20
500.5616778053
 11
656.115268922
 21
483.3369346505
  0
ENDBLK
  5
23A
100
AcDbEntity
  8
0
  6
BYBLOCK
 62
0
100
AcDbBlockEnd
  0
BLOCK
  5
23B
100
AcDbEntity
  8
0
100
AcDbBlockBegin
 62
2
  6
CONTINUOUS
  2
07001_BL2
 70
64
 10
164.6123879736
 20
989.5491209151
  3
07001_BL2
  1

  0
TEXT
  5
23C
100
AcDbEntity
  8
0
100
AcDbText
 62
5
  6
CONTINUOUS
 10
83.9965529344
 20
1004.0701370685
  7
STANDARD
 40
14.0
  1
ZUSCHNITT
 41
0.791005291
 72
0
100
AcDbText
  0
TEXT
  5
23D
100
AcDbEntity
  8
0
100
AcDbText
 62
5
  6
CONTINUOUS
 10
83.9965529344
 20
983.0701370685
  7
STANDARD
 40
14.0
  1
DEVELOPED VIEW
 41
0.8095238095
 72
0
100
AcDbText
  0
TEXT
  5
23E
100
AcDbEntity
  8
0
100
AcDbText
 62
5
  6
CONTINUOUS
 10
83.9965529344
 20
962.0701370685
  7
STANDARD
 40
14.0
  1
DEVELOPPEMENT
 41
0.7765567766
 72
0
100
AcDbText
  0
LINE
  5
23F
100
AcDbEntity
  8
0
100
AcDbLine
 62
5
  6
CONTINUOUS
 10
69.0660108816
 20
1030.9098009314
 11
260.1587650656
 21
1030.9098009314
  0
LINE
  5
240
100
AcDbEntity
  8
0
100
AcDbLine
 62
5
  6
CONTINUOUS
 10
260.1587650656
 20
1030.9098009314
 11
260.1587650656
 21
948.1884408988
  0
LINE
  5
241
100
AcDbEntity
  8
0
100
AcDbLine
 62
5
  6
CONTINUOUS
 10
260.1587650656
 20
948.1884408988
 11
69.0660108816
 21
948.1884408988
  0
LINE
  5
242
100
AcDbEntity
  8
0
100
AcDbLine
 62
5
  6
CONTINUOUS
 10
69.0660108816
 20
948.1884408988
 11
69.0660108816
 21
1030.9098009314
  0
ENDBLK
  5
243
100
AcDbEntity
  8
0
  6
BYBLOCK
 62
0
100
AcDbBlockEnd
  0
BLOCK
  5
244
100
AcDbEntity
  8
0
100
AcDbBlockBegin
 62
2
  6
CONTINUOUS
  2
07005_BL1
 70
64
 10
683.6409866455
 20
234.8690627006
  3
07005_BL1
  1

  0
TEXT
  5
245
100
AcDbEntity
  8
0
100
AcDbText
 62
5
  6
CONTINUOUS
 10
480.3120701795
 20
248.9753887829
  7
STANDARD
 40
14.0
  1
BIEGERADIEN INNEN
 41
0.7549019608
 72
0
100
AcDbText
  0
TEXT
  5
246
100
AcDbEntity
  8
0
100
AcDbText
 62
5
  6
CONTINUOUS
 10
480.3120701795
 20
227.9753887829
  7
STANDARD
 40
14.0
  1
BENDING RADII INSIDE       R=3
 41
0.7666666667
 72
0
100
AcDbText
  0
TEXT
  5
247
100
AcDbEntity
  8
0
100
AcDbText
 62
5
  6
CONTINUOUS
 10
480.3120701795
 20
206.9753887829
  7
STANDARD
 40
14.0
  1
RAYON DE PLIAGE INTERIEUR
 41
0.7676190476
 72
0
100
AcDbText
  0
LINE
  5
248
100
AcDbEntity
  8
0
100
AcDbLine
 62
5
  6
CONTINUOUS
 10
465.9569937061
 20
276.9635680901
 11
901.324979585
 21
276.9635680901
  0
LINE
  5
249
100
AcDbEntity
  8
0
100
AcDbLine
 62
5
  6
CONTINUOUS
 10
901.324979585
 20
276.9635680901
 11
901.324979585
 21
192.774557311
  0
LINE
  5
24A
100
AcDbEntity
  8
0
100
AcDbLine
 62
5
  6
CONTINUOUS
 10
901.324979585
 20
192.774557311
 11
465.9569937061
 21
192.774557311
  0
LINE
  5
24B
100
AcDbEntity
  8
0
100
AcDbLine
 62
5
  6
CONTINUOUS
 10
465.9569937061
 20
192.774557311
 11
465.9569937061
 21
276.9635680901
  0
ENDBLK
  5
24C
100
AcDbEntity
  8
0
  6
BYBLOCK
 62
0
100
AcDbBlockEnd
  0
BLOCK
  5
24D
100
AcDbEntity
  8
0
100
AcDbBlockBegin
 62
2
  6
CONTINUOUS
  2
DICKE_BL0
 70
64
 10
650.4233517335
 20
361.8749553553
  3
DICKE_BL0
  1

  0
TEXT
  5
24E
100
AcDbEntity
  8
0
100
AcDbText
 62
5
  6
CONTINUOUS
 10
561.8069224104
 20
376.5627978754
  7
STANDARD
 40
14.0
  1
DICKE
 41
0.7761904762
 72
0
100
AcDbText
  0
TEXT
  5
24F
100
AcDbEntity
  8
0
100
AcDbText
 62
5
  6
CONTINUOUS
 10
561.8069224104
 20
355.5627978754
  7
STANDARD
 40
14.0
  1
THICKNESS
 41
0.7751322751
 72
0
100
AcDbText
  0
TEXT
  5
250
100
AcDbEntity
  8
0
100
AcDbText
 62
5
  6
CONTINUOUS
 10
561.8069224104
 20
334.5627978754
  7
STANDARD
 40
14.0
  1
EPAISSEUR
 41
0.7619047619
 72
0
100
AcDbText
  0
TEXT
  5
251
100
AcDbEntity
  8
0
100
AcDbText
 62
5
  6
CONTINUOUS
 10
673.1653061128
 20
355.1815417255
  7
STANDARD
 40
14.0
  1
3
 41
0.7142857143
 72
0
100
AcDbText
  0
LINE
  5
252
100
AcDbEntity
  8
0
100
AcDbLine
 62
5
  6
CONTINUOUS
 10
546.9432052289
 20
322.1329523733
 11
546.9432052289
 21
401.6169583372
  0
LINE
  5
253
100
AcDbEntity
  8
0
100
AcDbLine
 62
5
  6
CONTINUOUS
 10
546.9432052289
 20
401.6169583372
 11
753.7324501752
 21
401.6169583372
  0
LINE
  5
254
100
AcDbEntity
  8
0
100
AcDbLine
 62
5
  6
CONTINUOUS
 10
546.9432052289
 20
322.1329523733
 11
753.9034982382
 21
322.1329523733
  0
LINE
  5
255
100
AcDbEntity
  8
0
100
AcDbLine
 62
5
  6
CONTINUOUS
 10
753.9034982382
 20
322.1329523733
 11
753.9034982382
 21
401.5730449311
  0
ENDBLK
  5
256
100
AcDbEntity
  8
0
  6
BYBLOCK
 62
0
100
AcDbBlockEnd
  0
BLOCK
  5
257
100
AcDbEntity
  8
0
100
AcDbBlockBegin
  2
_FILLED
 70
64
 10
0.0
 20
0.0
  3
_FILLED
  1

  0
SOLID
  5
258
100
AcDbEntity
  8
0
  6
BYBLOCK
 62
0
100
AcDbTrace
 10
0.0
 20
0.0
 11
-1.0
 21
0.1428571429
 12
-1.0
 22
-0.1428571429
 13
-1.0
 23
-0.1428571429
  0
ENDBLK
  5
259
100
AcDbEntity
  8
0
  6
BYBLOCK
 62
0
100
AcDbBlockEnd
  0
BLOCK
  5
25A
100
AcDbEntity
  8
0
100
AcDbBlockBegin
 62
2
  6
CONTINUOUS
  2
*D0
 70
65
 10
0.0
 20
0.0
  3
*D0
  1

  0
TEXT
  5
25B
100
AcDbEntity
  8
0
100
AcDbText
 62
5
  6
CONTINUOUS
 10
562.2653034047
 20
1111.1689823008
  7
STANDARD
 40
14.0
  1
562.6
 41
0.7285714286
 72
1
 11
587.7653034047
 21
1111.1689823008
100
AcDbText
  0
LINE
  5
25C
100
AcDbEntity
  8
0
100
AcDbLine
 62
2
  6
CONTINUOUS
 10
306.4669495378
 20
892.9737151252
 11
306.4669495378
 21
1113.6689823008
  0
LINE
  5
25D
100
AcDbEntity
  8
0
100
AcDbLine
 62
2
  6
CONTINUOUS
 10
869.0636572717
 20
892.9737151252
 11
869.0636572717
 21
1113.6689823008
  0
LINE
  5
25E
100
AcDbEntity
  8
0
100
AcDbLine
 62
2
  6
CONTINUOUS
 10
306.4669495378
 20
1107.6689823008
 11
587.7653034047
 21
1107.6689823008
  0
LINE
  5
25F
100
AcDbEntity
  8
0
100
AcDbLine
 62
2
  6
CONTINUOUS
 10
869.0636572717
 20
1107.6689823008
 11
587.7653034047
 21
1107.6689823008
  0
INSERT
  5
260
100
AcDbEntity
  8
0
100
AcDbBlockReference
 62
2
  6
CONTINUOUS
  2
_FILLED
 10
306.4669495378
 20
1107.6689823008
 41
14.0
 42
14.0
 43
14.0
 50
180.0
  0
INSERT
  5
261
100
AcDbEntity
  8
0
100
AcDbBlockReference
 62
2
  6
CONTINUOUS
  2
_FILLED
 10
869.0636572717
 20
1107.6689823008
 41
14.0
 42
14.0
 43
14.0
  0
ENDBLK
  5
262
100
AcDbEntity
  8
0
  6
BYBLOCK
 62
0
100
AcDbBlockEnd
  0
BLOCK
  5
263
100
AcDbEntity
  8
0
100
AcDbBlockBegin
 62
2
  6
CONTINUOUS
  2
*D1
 70
65
 10
0.0
 20
0.0
  3
*D1
  1

  0
TEXT
  5
264
100
AcDbEntity
  8
0
100
AcDbText
 62
5
  6
CONTINUOUS
 10
227.6202859186
 20
703.9737151252
  7
STANDARD
 40
14.0
  1
360
 50
90.0
 41
0.7619047619
 72
1
 11
227.6202859186
 21
719.9737151252
100
AcDbText
  0
LINE
  5
265
100
AcDbEntity
  8
0
100
AcDbLine
 62
2
  6
CONTINUOUS
 10
457.854348199
 20
899.9737151252
 11
225.1202859186
 21
899.9737151252
  0
LINE
  5
266
100
AcDbEntity
  8
0
100
AcDbLine
 62
2
  6
CONTINUOUS
 10
370.3829466313
 20
539.9737151252
 11
225.1202859186
 21
539.9737151252
  0
LINE
  5
267
100
AcDbEntity
  8
0
100
AcDbLine
 62
2
  6
CONTINUOUS
 10
231.1202859186
 20
899.9737151252
 11
231.1202859186
 21
719.9737151252
  0
LINE
  5
268
100
AcDbEntity
  8
0
100
AcDbLine
 62
2
  6
CONTINUOUS
 10
231.1202859186
 20
539.9737151252
 11
231.1202859186
 21
719.9737151252
  0
INSERT
  5
269
100
AcDbEntity
  8
0
100
AcDbBlockReference
 62
2
  6
CONTINUOUS
  2
_FILLED
 10
231.1202859186
 20
899.9737151252
 41
14.0
 42
14.0
 43
14.0
 50
90.0
  0
INSERT
  5
26A
100
AcDbEntity
  8
0
100
AcDbBlockReference
 62
2
  6
CONTINUOUS
  2
_FILLED
 10
231.1202859186
 20
539.9737151252
 41
14.0
 42
14.0
 43
14.0
 50
270.0
  0
ENDBLK
  5
26B
100
AcDbEntity
  8
0
  6
BYBLOCK
 62
0
100
AcDbBlockEnd
  0
BLOCK
  5
26C
100
AcDbEntity
  8
0
100
AcDbBlockBegin
 62
2
  6
CONTINUOUS
  2
*D2
 70
65
 10
0.0
 20
0.0
  3
*D2
  1

  0
TEXT
  5
26D
100
AcDbEntity
  8
0
100
AcDbText
 62
5
  6
CONTINUOUS
 10
1104.9530695889
 20
414.8125544352
  7
STANDARD
 40
14.0
  1
325
 50
90.0
 41
0.7380952381
 72
1
 11
1104.9530695889
 21
430.3125544352
100
AcDbText
  0
LINE
  5
26E
100
AcDbEntity
  8
0
100
AcDbLine
 62
2
  6
CONTINUOUS
 10
1243.8951097511
 20
592.9470491218
 11
1102.4530695889
 21
592.9470491218
  0
LINE
  5
26F
100
AcDbEntity
  8
0
100
AcDbLine
 62
2
  6
CONTINUOUS
 10
1200.7792010725
 20
267.6780597487
 11
1102.4530695889
 21
267.6780597487
  0
LINE
  5
270
100
AcDbEntity
  8
0
100
AcDbLine
 62
2
  6
CONTINUOUS
 10
1108.4530695889
 20
592.9470491218
 11
1108.4530695889
 21
430.3125544352
  0
LINE
  5
271
100
AcDbEntity
  8
0
100
AcDbLine
 62
2
  6
CONTINUOUS
 10
1108.4530695889
 20
267.6780597487
 11
1108.4530695889
 21
430.3125544352
  0
INSERT
  5
272
100
AcDbEntity
  8
0
100
AcDbBlockReference
 62
2
  6
CONTINUOUS
  2
_FILLED
 10
1108.4530695889
 20
592.9470491218
 41
14.0
 42
14.0
 43
14.0
 50
90.0
  0
INSERT
  5
273
100
AcDbEntity
  8
0
100
AcDbBlockReference
 62
2
  6
CONTINUOUS
  2
_FILLED
 10
1108.4530695889
 20
267.6780597487
 41
14.0
 42
14.0
 43
14.0
 50
270.0
  0
ENDBLK
  5
274
100
AcDbEntity
  8
0
  6
BYBLOCK
 62
0
100
AcDbBlockEnd
  0
BLOCK
  5
275
100
AcDbEntity
  8
0
100
AcDbBlockBegin
 62
2
  6
CONTINUOUS
  2
*D3
 70
65
 10
0.0
 20
0.0
  3
*D3
  1

  0
TEXT
  5
276
100
AcDbEntity
  8
0
100
AcDbText
 62
5
  6
CONTINUOUS
 10
1218.5506571242
 20
312.752167612
  7
STANDARD
 40
14.0
  1
153.5
 50
13.2347125534
 41
0.6571428571
 72
1
 11
1240.9397858229
 21
318.0178030067
100
AcDbText
  0
TEXT
  5
277
100
AcDbEntity
  8
0
100
AcDbText
 62
5
  6
CONTINUOUS
 10
1263.3289145217
 20
323.2834384015
  7
TEXTSTYLE_2
 40
14.0
  1
°
 50
13.2347125534
 41
1.0
 72
1
 11
1267.0729159763
 21
324.1639794374
100
AcDbText
  0
ARC
  5
278
100
AcDbEntity
  8
0
100
AcDbCircle
 62
2
  6
CONTINUOUS
 10
1256.024578567
 20
270.6780597487
 40
35.535940129
100
AcDbArc
 50
26.4694251069
 51
103.2347125534
  0
ARC
  5
279
100
AcDbEntity
  8
0
100
AcDbCircle
 62
2
  6
CONTINUOUS
 10
1256.024578567
 20
270.6780597487
 40
35.535940129
100
AcDbArc
 50
103.2347125534
 51
180.0
  0
SOLID
  5
27A
100
AcDbEntity
  8
0
100
AcDbTrace
 62
2
  6
CONTINUOUS
 10
1277.6819587864
 20
296.3613446148
 11
1287.8353692408
 21
286.5171455036
 12
1280.8444709557
 22
298.8105315776
 13
1280.8444709557
 23
298.8105315776
  0
SOLID
  5
27B
100
AcDbEntity
  8
0
100
AcDbTrace
 62
2
  6
CONTINUOUS
 10
1221.2672869168
 20
284.7987433917
 11
1220.488638438
 21
270.6780597487
 12
1225.1899323977
 22
284.0158944719
 13
1225.1899323977
 23
284.0158944719
  0
ENDBLK
  5
27C
100
AcDbEntity
  8
0
  6
BYBLOCK
 62
0
100
AcDbBlockEnd
  0
BLOCK
  5
27D
100
AcDbEntity
  8
0
100
AcDbBlockBegin
 62
2
  6
CONTINUOUS
  2
*D4
 70
65
 10
0.0
 20
0.0
  3
*D4
  1

  0
TEXT
  5
27E
100
AcDbEntity
  8
0
100
AcDbText
 62
5
  6
CONTINUOUS
 10
1286.3929421183
 20
325.4360106086
  7
STANDARD
 40
14.0
  1
155.9
 50
38.5399570726
 41
0.6714285714
 72
1
 11
1304.7740272591
 21
340.0779267757
100
AcDbText
  0
TEXT
  5
27F
100
AcDbEntity
  8
0
100
AcDbText
 62
5
  6
CONTINUOUS
 10
1323.1551124
 20
354.7198429428
  7
TEXTSTYLE_2
 40
14.0
  1
°
 50
38.5399570726
 41
1.0
 72
1
 11
1326.1634733068
 21
357.1162285676
100
AcDbText
  0
ARC
  5
280
100
AcDbEntity
  8
0
100
AcDbCircle
 62
2
  6
CONTINUOUS
 10
1334.0331752241
 20
309.5197491847
 40
28.1320193904
100
AcDbArc
 50
50.6104890384
 51
128.5399570726
  0
ARC
  5
281
100
AcDbEntity
  8
0
100
AcDbCircle
 62
2
  6
CONTINUOUS
 10
1334.0331752241
 20
309.5197491847
 40
28.1320193904
100
AcDbArc
 50
128.5399570726
 51
206.4694251069
  0
SOLID
  5
282
100
AcDbEntity
  8
0
100
AcDbTrace
 62
2
  6
CONTINUOUS
 10
1338.3614485312
 20
335.3969674091
 11
1351.8854463904
 21
331.2615736063
 12
1340.0603187104
 22
339.0182710576
 13
1340.0603187104
 23
339.0182710576
  0
SOLID
  5
283
100
AcDbEntity
  8
0
100
AcDbTrace
 62
2
  6
CONTINUOUS
 10
1303.9338512673
 20
310.2408238252
 11
1308.8501696018
 21
296.98074034
 12
1307.8433273766
 22
311.0869896194
 13
1307.8433273766
 23
311.0869896194
  0
ENDBLK
  5
284
100
AcDbEntity
  8
0
  6
BYBLOCK
 62
0
100
AcDbBlockEnd
  0
BLOCK
  5
285
100
AcDbEntity
  8
0
100
AcDbBlockBegin
 62
2
  6
CONTINUOUS
  2
*D5
 70
65
 10
0.0
 20
0.0
  3
*D5
  1

  0
TEXT
  5
286
100
AcDbEntity
  8
0
100
AcDbText
 62
5
  6
CONTINUOUS
 10
1344.0965357647
 20
369.1751822763
  7
STANDARD
 40
14.0
  1
153.5
 50
63.8452015918
 41
0.6571428571
 72
1
 11
1354.2348863939
 21
389.8201295157
100
AcDbText
  0
TEXT
  5
287
100
AcDbEntity
  8
0
100
AcDbText
 62
5
  6
CONTINUOUS
 10
1364.3732370232
 20
410.4650767551
  7
TEXTSTYLE_2
 40
14.0
  1
°
 50
63.8452015918
 41
1.0
 72
1
 11
1366.0686133826
 21
413.9174090694
100
AcDbText
  0
ARC
  5
288
100
AcDbEntity
  8
0
100
AcDbCircle
 62
2
  6
CONTINUOUS
 10
1389.3335885949
 20
376.8687081349
 40
23.2137785312
100
AcDbArc
 50
77.0799141452
 51
153.8452015918
  0
ARC
  5
289
100
AcDbEntity
  8
0
100
AcDbCircle
 62
2
  6
CONTINUOUS
 10
1389.3335885949
 20
376.8687081349
 40
23.2137785312
100
AcDbArc
 50
153.8452015918
 51
230.6104890384
  0
SOLID
  5
28A
100
AcDbEntity
  8
0
100
AcDbTrace
 62
2
  6
CONTINUOUS
 10
1380.7164095564
 20
396.4369285133
 11
1394.5239995569
 21
399.4947804352
 12
1380.4125146183
 22
400.4253677903
 13
1380.4125146183
 23
400.4253677903
  0
SOLID
  5
28B
100
AcDbEntity
  8
0
100
AcDbTrace
 62
2
  6
CONTINUOUS
 10
1365.2382969026
 20
369.5257732118
 11
1374.6023791717
 21
358.9279449787
 12
1368.5802520986
 22
371.7238031178
 13
1368.5802520986
 23
371.7238031178
  0
ENDBLK
  5
28C
100
AcDbEntity
  8
0
  6
BYBLOCK
 62
0
100
AcDbBlockEnd
  0
BLOCK
  5
28D
100
AcDbEntity
  8
0
100
AcDbBlockBegin
 62
2
  6
CONTINUOUS
  2
*D6
 70
65
 10
0.0
 20
0.0
  3
*D6
  1

  0
TEXT
  5
28E
100
AcDbEntity
  8
0
100
AcDbText
 62
5
  6
CONTINUOUS
 10
1364.9502666455
 20
487.2881423352
  7
STANDARD
 40
14.0
  1
147.2
 50
-86.4988062445
 41
0.7
 72
1
 11
1366.4464653683
 21
462.8338709418
100
AcDbText
  0
TEXT
  5
28F
100
AcDbEntity
  8
0
100
AcDbText
 62
5
  6
CONTINUOUS
 10
1367.9426640911
 20
438.3795995484
  7
TEXTSTYLE_2
 40
14.0
  1
°
 50
-86.4988062445
 41
1.0
 72
1
 11
1368.1775461512
 21
434.5406244474
100
AcDbText
  0
ARC
  5
290
100
AcDbEntity
  8
0
100
AcDbCircle
 62
2
  6
CONTINUOUS
 10
1408.7639489901
 20
461.5696580856
 40
56.1612945107
100
AcDbArc
 50
109.9224733658
 51
183.5011937555
  0
ARC
  5
291
100
AcDbEntity
  8
0
100
AcDbCircle
 62
2
  6
CONTINUOUS
 10
1408.7639489901
 20
461.5696580856
 40
56.1612945107
100
AcDbArc
 50
183.5011937555
 51
257.0799141452
  0
SOLID
  5
292
100
AcDbEntity
  8
0
100
AcDbTrace
 62
2
  6
CONTINUOUS
 10
1378.0700507054
 20
506.2191848724
 11
1389.6270812702
 21
514.3699544388
 12
1376.2501164494
 22
509.7811842132
 13
1376.2501164494
 23
509.7811842132
  0
SOLID
  5
293
100
AcDbEntity
  8
0
100
AcDbTrace
 62
2
  6
CONTINUOUS
 10
1382.3701357942
 20
409.7539540663
 11
1396.2067430065
 21
406.8302063255
 12
1383.7422494501
 22
413.5112541761
 13
1383.7422494501
 23
413.5112541761
  0
ENDBLK
  5
294
100
AcDbEntity
  8
0
  6
BYBLOCK
 62
0
100
AcDbBlockEnd
  0
BLOCK
  5
295
100
AcDbEntity
  8
0
100
AcDbBlockBegin
 62
2
  6
CONTINUOUS
  2
*D7
 70
65
 10
0.0
 20
0.0
  3
*D7
  1

  0
TEXT
  5
296
100
AcDbEntity
  8
0
100
AcDbText
 62
5
  6
CONTINUOUS
 10
1328.3768589595
 20
538.6939978139
  7
STANDARD
 40
14.0
  1
142.8
 50
-51.4600429274
 41
0.7
 72
1
 11
1343.6418353891
 21
519.5307388373
100
AcDbText
  0
TEXT
  5
297
100
AcDbEntity
  8
0
100
AcDbText
 62
5
  6
CONTINUOUS
 10
1358.9068118186
 20
500.3674798607
  7
TEXTSTYLE_2
 40
14.0
  1
°
 50
-51.4600429274
 41
1.0
 72
1
 11
1361.3031974434
 21
497.3591189538
100
AcDbText
  0
ARC
  5
298
100
AcDbEntity
  8
0
100
AcDbCircle
 62
2
  6
CONTINUOUS
 10
1379.2565177868
 20
542.9832485938
 40
56.4691996246
100
AcDbArc
 50
147.1574407794
 51
218.5399570726
  0
ARC
  5
299
100
AcDbEntity
  8
0
100
AcDbCircle
 62
2
  6
CONTINUOUS
 10
1379.2565177868
 20
542.9832485938
 40
56.4691996246
100
AcDbArc
 50
218.5399570726
 51
289.9224733658
  0
SOLID
  5
29A
100
AcDbEntity
  8
0
100
AcDbTrace
 62
2
  6
CONTINUOUS
 10
1327.5346226347
 20
560.1289212874
 11
1331.8131296287
 21
573.6083269828
 12
1323.9315293198
 22
561.8660794735
 13
1323.9315293198
 23
561.8660794735
  0
SOLID
  5
29B
100
AcDbEntity
  8
0
100
AcDbTrace
 62
2
  6
CONTINUOUS
 10
1385.2910748027
 20
484.8368835094
 11
1398.4983036623
 21
489.8934738479
 12
1384.4035186623
 22
488.7371712036
 13
1384.4035186623
 23
488.7371712036
  0
ENDBLK
  5
29C
100
AcDbEntity
  8
0
  6
BYBLOCK
 62
0
100
AcDbBlockEnd
  0
BLOCK
  5
29D
100
AcDbEntity
  8
0
100
AcDbBlockBegin
 62
2
  6
CONTINUOUS
  2
*D8
 70
65
 10
0.0
 20
0.0
  3
*D8
  1

  0
TEXT
  5
29E
100
AcDbEntity
  8
0
100
AcDbText
 62
5
  6
CONTINUOUS
 10
1270.6940568671
 20
568.7198991007
  7
STANDARD
 40
14.0
  1
147.2
 50
-16.4212796103
 41
0.7
 72
1
 11
1294.1946785179
 21
561.793804817
100
AcDbText
  0
TEXT
  5
29F
100
AcDbEntity
  8
0
100
AcDbText
 62
5
  6
CONTINUOUS
 10
1317.6953001687
 20
554.8677105333
  7
TEXTSTYLE_2
 40
14.0
  1
°
 50
-16.4212796103
 41
1.0
 72
1
 11
1321.384565734
 21
553.7804115877
100
AcDbText
  0
ARC
  5
2A0
100
AcDbEntity
  8
0
100
AcDbCircle
 62
2
  6
CONTINUOUS
 10
1306.5017058798
 20
589.9470491218
 40
44.4840152861
100
AcDbArc
 50
180.0
 51
253.5787203897
  0
ARC
  5
2A1
100
AcDbEntity
  8
0
100
AcDbCircle
 62
2
  6
CONTINUOUS
 10
1306.5017058798
 20
589.9470491218
 40
44.4840152861
100
AcDbArc
 50
253.5787203897
 51
327.1574407794
  0
SOLID
  5
2A2
100
AcDbEntity
  8
0
100
AcDbTrace
 62
2
  6
CONTINUOUS
 10
1266.1869373097
 20
576.433449238
 11
1262.0176905937
 21
589.9470491218
 12
1262.2363594736
 22
575.8066041528
 13
1262.2363594736
 23
575.8066041528
  0
SOLID
  5
2A3
100
AcDbEntity
  8
0
100
AcDbTrace
 62
2
  6
CONTINUOUS
 10
1336.0230340897
 20
554.0602234457
 11
1343.8755737241
 21
565.8219249081
 12
1333.0438592656
 22
556.7294026019
 13
1333.0438592656
 23
556.7294026019
  0
ENDBLK
  5
2A4
100
AcDbEntity
  8
0
  6
BYBLOCK
 62
0
100
AcDbBlockEnd
  0
BLOCK
  5
2A5
100
AcDbEntity
  8
0
100
AcDbBlockBegin
 62
2
  6
CONTINUOUS
  2
*D9
 70
65
 10
0.0
 20
0.0
  3
*D9
  1

  0
TEXT
  5
2A6
100
AcDbEntity
  8
0
100
AcDbText
 62
5
  6
CONTINUOUS
 10
897.3554211992
 20
600.9737151252
  7
STANDARD
 40
14.0
  1
72
 50
90.0
 41
0.7857142857
 72
1
 11
897.3554211992
 21
611.9737151252
100
AcDbText
  0
LINE
  5
2A7
100
AcDbEntity
  8
0
100
AcDbLine
 62
2
  6
CONTINUOUS
 10
875.7024386374
 20
647.9737151252
 11
906.8554211992
 21
647.9737151252
  0
LINE
  5
2A8
100
AcDbEntity
  8
0
100
AcDbLine
 62
2
  6
CONTINUOUS
 10
875.7024386374
 20
575.9737151252
 11
906.8554211992
 21
575.9737151252
  0
LINE
  5
2A9
100
AcDbEntity
  8
0
100
AcDbLine
 62
2
  6
CONTINUOUS
 10
900.8554211992
 20
647.9737151252
 11
900.8554211992
 21
675.9737151252
  0
LINE
  5
2AA
100
AcDbEntity
  8
0
100
AcDbLine
 62
2
  6
CONTINUOUS
 10
900.8554211992
 20
675.9737151252
 11
900.8554211992
 21
611.9737151252
  0
LINE
  5
2AB
100
AcDbEntity
  8
0
100
AcDbLine
 62
2
  6
CONTINUOUS
 10
900.8554211992
 20
575.9737151252
 11
900.8554211992
 21
547.9737151252
  0
LINE
  5
2AC
100
AcDbEntity
  8
0
100
AcDbLine
 62
2
  6
CONTINUOUS
 10
900.8554211992
 20
547.9737151252
 11
900.8554211992
 21
611.9737151252
  0
INSERT
  5
2AD
100
AcDbEntity
  8
0
100
AcDbBlockReference
 62
2
  6
CONTINUOUS
  2
_FILLED
 10
900.8554211992
 20
647.9737151252
 41
14.0
 42
14.0
 43
14.0
 50
270.0
  0
INSERT
  5
2AE
100
AcDbEntity
  8
0
100
AcDbBlockReference
 62
2
  6
CONTINUOUS
  2
_FILLED
 10
900.8554211992
 20
575.9737151252
 41
14.0
 42
14.0
 43
14.0
 50
90.0
  0
ENDBLK
  5
2AF
100
AcDbEntity
  8
0
  6
BYBLOCK
 62
0
100
AcDbBlockEnd
  0
BLOCK
  5
2B0
100
AcDbEntity
  8
0
100
AcDbBlockBegin
 62
2
  6
CONTINUOUS
  2
*D10
 70
65
 10
0.0
 20
0.0
  3
*D10
  1

  0
TEXT
  5
2B1
100
AcDbEntity
  8
0
100
AcDbText
 62
5
  6
CONTINUOUS
 10
887.3690067845
 20
517.1284345856
  7
STANDARD
 40
14.0
  1
35x 
 50
-60.9664514333
 41
0.7321428571
 72
0
100
AcDbText
  0
TEXT
  5
2B2
100
AcDbEntity
  8
0
100
AcDbText
 62
5
  6
CONTINUOUS
 10
907.2671946708
 20
481.2806714916
  7
TEXTSTYLE_2
 40
14.0
  1
⌀
 50
-60.9664514333
 41
1.0
 72
0
100
AcDbText
  0
TEXT
  5
2B3
100
AcDbEntity
  8
0
100
AcDbText
 62
5
  6
CONTINUOUS
 10
915.2812240635
 20
466.8429232537
  7
STANDARD
 40
14.0
  1
22
 50
-60.9664514333
 41
0.7857142857
 72
0
100
AcDbText
  0
LINE
  5
2B4
100
AcDbEntity
  8
0
100
AcDbLine
 62
2
  6
CONTINUOUS
 10
856.0409768508
 20
566.3560225878
 11
922.898125592
 21
445.9089123837
  0
INSERT
  5
2B5
100
AcDbEntity
  8
0
100
AcDbBlockReference
 62
2
  6
CONTINUOUS
  2
_FILLED
 10
856.0409768508
 20
566.3560225878
 41
14.0
 42
14.0
 43
14.0
 50
119.0335485667
  0
ENDBLK
  5
2B6
100
AcDbEntity
  8
0
  6
BYBLOCK
 62
0
100
AcDbBlockEnd
  0
BLOCK
  5
2B7
100
AcDbEntity
  8
0
100
AcDbBlockBegin
 62
2
  6
CONTINUOUS
  2
*D11
 70
65
 10
0.0
 20
0.0
  3
*D11
  1

  0
TEXT
  5
2B8
100
AcDbEntity
  8
0
100
AcDbText
 62
5
  6
CONTINUOUS
 10
327.4658568317
 20
929.9121843629
  7
STANDARD
 40
14.0
  1
63
 41
0.75
 72
1
 11
337.9658568317
 21
929.9121843629
100
AcDbText
  0
LINE
  5
2B9
100
AcDbEntity
  8
0
100
AcDbLine
 62
2
  6
CONTINUOUS
 10
369.4647641256
 20
913.9737151252
 11
369.4647641256
 21
932.4121843629
  0
LINE
  5
2BA
100
AcDbEntity
  8
0
100
AcDbLine
 62
2
  6
CONTINUOUS
 10
306.4669495378
 20
892.9737151252
 11
306.4669495378
 21
932.4121843629
  0
LINE
  5
2BB
100
AcDbEntity
  8
0
100
AcDbLine
 62
2
  6
CONTINUOUS
 10
369.4647641256
 20
926.4121843629
 11
397.4647641256
 21
926.4121843629
  0
LINE
  5
2BC
100
AcDbEntity
  8
0
100
AcDbLine
 62
2
  6
CONTINUOUS
 10
397.4647641256
 20
926.4121843629
 11
337.9658568317
 21
926.4121843629
  0
LINE
  5
2BD
100
AcDbEntity
  8
0
100
AcDbLine
 62
2
  6
CONTINUOUS
 10
306.4669495378
 20
926.4121843629
 11
278.4669495378
 21
926.4121843629
  0
LINE
  5
2BE
100
AcDbEntity
  8
0
100
AcDbLine
 62
2
  6
CONTINUOUS
 10
278.4669495378
 20
926.4121843629
 11
337.9658568317
 21
926.4121843629
  0
INSERT
  5
2BF
100
AcDbEntity
  8
0
100
AcDbBlockReference
 62
2
  6
CONTINUOUS
  2
_FILLED
 10
369.4647641256
 20
926.4121843629
 41
14.0
 42
14.0
 43
14.0
 50
180.0
  0
INSERT
  5
2C0
100
AcDbEntity
  8
0
100
AcDbBlockReference
 62
2
  6
CONTINUOUS
  2
_FILLED
 10
306.4669495378
 20
926.4121843629
 41
14.0
 42
14.0
 43
14.0
  0
ENDBLK
  5
2C1
100
AcDbEntity
  8
0
  6
BYBLOCK
 62
0
100
AcDbBlockEnd
  0
BLOCK
  5
2C2
100
AcDbEntity
  8
0
100
AcDbBlockBegin
 62
2
  6
CONTINUOUS
  2
*D12
 70
65
 10
0.0
 20
0.0
  3
*D12
  1

  0
TEXT
  5
2C3
100
AcDbEntity
  8
0
100
AcDbText
 62
5
  6
CONTINUOUS
 10
353.2419411994
 20
956.5049171873
  7
STANDARD
 40
14.0
  1
150.55
 41
0.6785714286
 72
1
 11
381.7419411994
 21
956.5049171873
100
AcDbText
  0
LINE
  5
2C4
100
AcDbEntity
  8
0
100
AcDbLine
 62
2
  6
CONTINUOUS
 10
457.016932861
 20
913.9737151252
 11
457.016932861
 21
959.0049171873
  0
LINE
  5
2C5
100
AcDbEntity
  8
0
100
AcDbLine
 62
2
  6
CONTINUOUS
 10
306.4669495378
 20
892.9737151252
 11
306.4669495378
 21
959.0049171873
  0
LINE
  5
2C6
100
AcDbEntity
  8
0
100
AcDbLine
 62
2
  6
CONTINUOUS
 10
457.016932861
 20
953.0049171873
 11
381.7419411994
 21
953.0049171873
  0
LINE
  5
2C7
100
AcDbEntity
  8
0
100
AcDbLine
 62
2
  6
CONTINUOUS
 10
306.4669495378
 20
953.0049171873
 11
381.7419411994
 21
953.0049171873
  0
INSERT
  5
2C8
100
AcDbEntity
  8
0
100
AcDbBlockReference
 62
2
  6
CONTINUOUS
  2
_FILLED
 10
457.016932861
 20
953.0049171873
 41
14.0
 42
14.0
 43
14.0
  0
INSERT
  5
2C9
100
AcDbEntity
  8
0
100
AcDbBlockReference
 62
2
  6
CONTINUOUS
  2
_FILLED
 10
306.4669495378
 20
953.0049171873
 41
14.0
 42
14.0
 43
14.0
 50
180.0
  0
ENDBLK
  5
2CA
100
AcDbEntity
  8
0
  6
BYBLOCK
 62
0
100
AcDbBlockEnd
  0
BLOCK
  5
2CB
100
AcDbEntity
  8
0
100
AcDbBlockBegin
 62
2
  6
CONTINUOUS
  2
*D13
 70
65
 10
0.0
 20
0.0
  3
*D13
  1

  0
TEXT
  5
2CC
100
AcDbEntity
  8
0
100
AcDbText
 62
5
  6
CONTINUOUS
 10
401.5180255671
 20
985.3137110805
  7
STANDARD
 40
14.0
  1
238.1
 41
0.6857142857
 72
1
 11
425.5180255671
 21
985.3137110805
100
AcDbText
  0
LINE
  5
2CD
100
AcDbEntity
  8
0
100
AcDbLine
 62
2
  6
CONTINUOUS
 10
544.5691015965
 20
913.9737151252
 11
544.5691015965
 21
987.8137110805
  0
LINE
  5
2CE
100
AcDbEntity
  8
0
100
AcDbLine
 62
2
  6
CONTINUOUS
 10
306.4669495378
 20
892.9737151252
 11
306.4669495378
 21
987.8137110805
  0
LINE
  5
2CF
100
AcDbEntity
  8
0
100
AcDbLine
 62
2
  6
CONTINUOUS
 10
544.5691015965
 20
981.8137110805
 11
425.5180255671
 21
981.8137110805
  0
LINE
  5
2D0
100
AcDbEntity
  8
0
100
AcDbLine
 62
2
  6
CONTINUOUS
 10
306.4669495378
 20
981.8137110805
 11
425.5180255671
 21
981.8137110805
  0
INSERT
  5
2D1
100
AcDbEntity
  8
0
100
AcDbBlockReference
 62
2
  6
CONTINUOUS
  2
_FILLED
 10
544.5691015965
 20
981.8137110805
 41
14.0
 42
14.0
 43
14.0
  0
INSERT
  5
2D2
100
AcDbEntity
  8
0
100
AcDbBlockReference
 62
2
  6
CONTINUOUS
  2
_FILLED
 10
306.4669495378
 20
981.8137110805
 41
14.0
 42
14.0
 43
14.0
 50
180.0
  0
ENDBLK
  5
2D3
100
AcDbEntity
  8
0
  6
BYBLOCK
 62
0
100
AcDbBlockEnd
  0
BLOCK
  5
2D4
100
AcDbEntity
  8
0
100
AcDbBlockBegin
 62
2
  6
CONTINUOUS
  2
*D14
 70
65
 10
0.0
 20
0.0
  3
*D14
  1

  0
TEXT
  5
2D5
100
AcDbEntity
  8
0
100
AcDbText
 62
5
  6
CONTINUOUS
 10
438.7024022266
 20
1017.0772530652
  7
STANDARD
 40
14.0
  1
325.47
 41
0.7261904762
 72
1
 11
469.2024022266
 21
1017.0772530652
100
AcDbText
  0
LINE
  5
2D6
100
AcDbEntity
  8
0
100
AcDbLine
 62
2
  6
CONTINUOUS
 10
631.9378549155
 20
913.9737151252
 11
631.9378549155
 21
1019.5772530652
  0
LINE
  5
2D7
100
AcDbEntity
  8
0
100
AcDbLine
 62
2
  6
CONTINUOUS
 10
306.4669495378
 20
892.9737151252
 11
306.4669495378
 21
1019.5772530652
  0
LINE
  5
2D8
100
AcDbEntity
  8
0
100
AcDbLine
 62
2
  6
CONTINUOUS
 10
631.9378549155
 20
1013.5772530652
 11
469.2024022266
 21
1013.5772530652
  0
LINE
  5
2D9
100
AcDbEntity
  8
0
100
AcDbLine
 62
2
  6
CONTINUOUS
 10
306.4669495378
 20
1013.5772530652
 11
469.2024022266
 21
1013.5772530652
  0
INSERT
  5
2DA
100
AcDbEntity
  8
0
100
AcDbBlockReference
 62
2
  6
CONTINUOUS
  2
_FILLED
 10
631.9378549155
 20
1013.5772530652
 41
14.0
 42
14.0
 43
14.0
  0
INSERT
  5
2DB
100
AcDbEntity
  8
0
100
AcDbBlockReference
 62
2
  6
CONTINUOUS
  2
_FILLED
 10
306.4669495378
 20
1013.5772530652
 41
14.0
 42
14.0
 43
14.0
 50
180.0
  0
ENDBLK
  5
2DC
100
AcDbEntity
  8
0
  6
BYBLOCK
 62
0
100
AcDbBlockEnd
  0
BLOCK
  5
2DD
100
AcDbEntity
  8
0
100
AcDbBlockBegin
 62
2
  6
CONTINUOUS
  2
*D15
 70
65
 10
0.0
 20
0.0
  3
*D15
  1

  0
TEXT
  5
2DE
100
AcDbEntity
  8
0
100
AcDbText
 62
5
  6
CONTINUOUS
 10
488.2684293857
 20
1049.4178942866
  7
STANDARD
 40
14.0
  1
412.6
 41
0.7
 72
1
 11
512.7684293857
 21
1049.4178942866
100
AcDbText
  0
LINE
  5
2DF
100
AcDbEntity
  8
0
100
AcDbLine
 62
2
  6
CONTINUOUS
 10
306.4669495378
 20
892.9737151252
 11
306.4669495378
 21
1051.9178942866
  0
LINE
  5
2E0
100
AcDbEntity
  8
0
100
AcDbLine
 62
2
  6
CONTINUOUS
 10
719.0699092336
 20
913.9737151252
 11
719.0699092336
 21
1051.9178942866
  0
LINE
  5
2E1
100
AcDbEntity
  8
0
100
AcDbLine
 62
2
  6
CONTINUOUS
 10
306.4669495378
 20
1045.9178942866
 11
512.7684293857
 21
1045.9178942866
  0
LINE
  5
2E2
100
AcDbEntity
  8
0
100
AcDbLine
 62
2
  6
CONTINUOUS
 10
719.0699092336
 20
1045.9178942866
 11
512.7684293857
 21
1045.9178942866
  0
INSERT
  5
2E3
100
AcDbEntity
  8
0
100
AcDbBlockReference
 62
2
  6
CONTINUOUS
  2
_FILLED
 10
306.4669495378
 20
1045.9178942866
 41
14.0
 42
14.0
 43
14.0
 50
180.0
  0
INSERT
  5
2E4
100
AcDbEntity
  8
0
100
AcDbBlockReference
 62
2
  6
CONTINUOUS
  2
_FILLED
 10
719.0699092336
 20
1045.9178942866
 41
14.0
 42
14.0
 43
14.0
  0
ENDBLK
  5
2E5
100
AcDbEntity
  8
0
  6
BYBLOCK
 62
0
100
AcDbBlockEnd
  0
BLOCK
  5
2E6
100
AcDbEntity
  8
0
100
AcDbBlockBegin
 62
2
  6
CONTINUOUS
  2
*D16
 70
65
 10
0.0
 20
0.0
  3
*D16
  1

  0
TEXT
  5
2E7
100
AcDbEntity
  8
0
100
AcDbText
 62
5
  6
CONTINUOUS
 10
524.8344565447
 20
1085.1980469583
  7
STANDARD
 40
14.0
  1
499.74
 41
0.75
 72
1
 11
556.3344565447
 21
1085.1980469583
100
AcDbText
  0
LINE
  5
2E8
100
AcDbEntity
  8
0
100
AcDbLine
 62
2
  6
CONTINUOUS
 10
306.4669495378
 20
892.9737151252
 11
306.4669495378
 21
1087.6980469583
  0
LINE
  5
2E9
100
AcDbEntity
  8
0
100
AcDbLine
 62
2
  6
CONTINUOUS
 10
806.2019635517
 20
913.9737151252
 11
806.2019635517
 21
1087.6980469583
  0
LINE
  5
2EA
100
AcDbEntity
  8
0
100
AcDbLine
 62
2
  6
CONTINUOUS
 10
306.4669495378
 20
1081.6980469583
 11
556.3344565447
 21
1081.6980469583
  0
LINE
  5
2EB
100
AcDbEntity
  8
0
100
AcDbLine
 62
2
  6
CONTINUOUS
 10
806.2019635517
 20
1081.6980469583
 11
556.3344565447
 21
1081.6980469583
  0
INSERT
  5
2EC
100
AcDbEntity
  8
0
100
AcDbBlockReference
 62
2
  6
CONTINUOUS
  2
_FILLED
 10
306.4669495378
 20
1081.6980469583
 41
14.0
 42
14.0
 43
14.0
 50
180.0
  0
INSERT
  5
2ED
100
AcDbEntity
  8
0
100
AcDbBlockReference
 62
2
  6
CONTINUOUS
  2
_FILLED
 10
806.2019635517
 20
1081.6980469583
 41
14.0
 42
14.0
 43
14.0
  0
ENDBLK
  5
2EE
100
AcDbEntity
  8
0
  6
BYBLOCK
 62
0
100
AcDbBlockEnd
  0
BLOCK
  5
2EF
100
AcDbEntity
  8
0
100
AcDbBlockBegin
 62
2
  6
CONTINUOUS
  2
*D17
 70
65
 10
0.0
 20
0.0
  3
*D17
  1

  0
TEXT
  5
2F0
100
AcDbEntity
  8
0
100
AcDbText
 62
5
  6
CONTINUOUS
 10
1139.5574768352
 20
859.450996578
  7
STANDARD
 40
14.0
  1
360
 50
90.0
 41
0.7619047619
 72
1
 11
1139.5574768352
 21
875.450996578
100
AcDbText
  0
LINE
  5
2F1
100
AcDbEntity
  8
0
100
AcDbLine
 62
2
  6
CONTINUOUS
 10
1200.2393850315
 20
1055.450996578
 11
1137.0574768352
 21
1055.450996578
  0
LINE
  5
2F2
100
AcDbEntity
  8
0
100
AcDbLine
 62
2
  6
CONTINUOUS
 10
1200.2393850315
 20
695.450996578
 11
1137.0574768352
 21
695.450996578
  0
LINE
  5
2F3
100
AcDbEntity
  8
0
100
AcDbLine
 62
2
  6
CONTINUOUS
 10
1143.0574768352
 20
1055.450996578
 11
1143.0574768352
 21
875.450996578
  0
LINE
  5
2F4
100
AcDbEntity
  8
0
100
AcDbLine
 62
2
  6
CONTINUOUS
 10
1143.0574768352
 20
695.450996578
 11
1143.0574768352
 21
875.450996578
  0
INSERT
  5
2F5
100
AcDbEntity
  8
0
100
AcDbBlockReference
 62
2
  6
CONTINUOUS
  2
_FILLED
 10
1143.0574768352
 20
1055.450996578
 41
14.0
 42
14.0
 43
14.0
 50
90.0
  0
INSERT
  5
2F6
100
AcDbEntity
  8
0
100
AcDbBlockReference
 62
2
  6
CONTINUOUS
  2
_FILLED
 10
1143.0574768352
 20
695.450996578
 41
14.0
 42
14.0
 43
14.0
 50
270.0
  0
ENDBLK
  5
2F7
100
AcDbEntity
  8
0
  6
BYBLOCK
 62
0
100
AcDbBlockEnd
  0
BLOCK
  5
2F8
100
AcDbEntity
  8
0
100
AcDbBlockBegin
 62
2
  6
CONTINUOUS
  2
*D18
 70
65
 10
0.0
 20
0.0
  3
*D18
  1

  0
TEXT
  5
2F9
100
AcDbEntity
  8
0
100
AcDbText
 62
5
  6
CONTINUOUS
 10
1287.4407973608
 20
233.7939625432
  7
STANDARD
 40
14.0
  1
218
 41
0.7142857143
 72
1
 11
1302.4407973608
 21
233.7939625432
100
AcDbText
  0
LINE
  5
2FA
100
AcDbEntity
  8
0
100
AcDbLine
 62
2
  6
CONTINUOUS
 10
1411.6422096902
 20
461.3786590459
 11
1411.6422096902
 21
224.2939625432
  0
LINE
  5
2FB
100
AcDbEntity
  8
0
100
AcDbLine
 62
2
  6
CONTINUOUS
 10
1193.2393850315
 20
270.6780597487
 11
1193.2393850315
 21
224.2939625432
  0
LINE
  5
2FC
100
AcDbEntity
  8
0
100
AcDbLine
 62
2
  6
CONTINUOUS
 10
1411.6422096902
 20
230.2939625432
 11
1302.4407973608
 21
230.2939625432
  0
LINE
  5
2FD
100
AcDbEntity
  8
0
100
AcDbLine
 62
2
  6
CONTINUOUS
 10
1193.2393850315
 20
230.2939625432
 11
1302.4407973608
 21
230.2939625432
  0
INSERT
  5
2FE
100
AcDbEntity
  8
0
100
AcDbBlockReference
 62
2
  6
CONTINUOUS
  2
_FILLED
 10
1411.6422096902
 20
230.2939625432
 41
14.0
 42
14.0
 43
14.0
  0
INSERT
  5
2FF
100
AcDbEntity
  8
0
100
AcDbBlockReference
 62
2
  6
CONTINUOUS
  2
_FILLED
 10
1193.2393850315
 20
230.2939625432
 41
14.0
 42
14.0
 43
14.0
 50
180.0
  0
ENDBLK
  5
300
100
AcDbEntity
  8
0
  6
BYBLOCK
 62
0
100
AcDbBlockEnd
  0
BLOCK
  5
301
100
AcDbEntity
  8
0
100
AcDbBlockBegin
 62
2
  6
CONTINUOUS
  2
*D19
 70
65
 10
0.0
 20
0.0
  3
*D19
  1

  0
TEXT
  5
302
100
AcDbEntity
  8
0
100
AcDbText
 62
5
  6
CONTINUOUS
 10
1198.5672473913
 20
633.465451618
  7
STANDARD
 40
14.0
  1
50.7
 41
0.7142857143
 72
1
 11
1218.5672473913
 21
633.465451618
100
AcDbText
  0
LINE
  5
303
100
AcDbEntity
  8
0
100
AcDbLine
 62
2
  6
CONTINUOUS
 10
1243.8951097511
 20
592.9470491218
 11
1243.8951097511
 21
635.965451618
  0
LINE
  5
304
100
AcDbEntity
  8
0
100
AcDbLine
 62
2
  6
CONTINUOUS
 10
1193.2393850315
 20
270.6780597487
 11
1193.2393850315
 21
635.965451618
  0
LINE
  5
305
100
AcDbEntity
  8
0
100
AcDbLine
 62
2
  6
CONTINUOUS
 10
1243.8951097511
 20
629.965451618
 11
1218.5672473913
 21
629.965451618
  0
LINE
  5
306
100
AcDbEntity
  8
0
100
AcDbLine
 62
2
  6
CONTINUOUS
 10
1193.2393850315
 20
629.965451618
 11
1218.5672473913
 21
629.965451618
  0
INSERT
  5
307
100
AcDbEntity
  8
0
100
AcDbBlockReference
 62
2
  6
CONTINUOUS
  2
_FILLED
 10
1243.8951097511
 20
629.965451618
 41
14.0
 42
14.0
 43
14.0
  0
INSERT
  5
308
100
AcDbEntity
  8
0
100
AcDbBlockReference
 62
2
  6
CONTINUOUS
  2
_FILLED
 10
1193.2393850315
 20
629.965451618
 41
14.0
 42
14.0
 43
14.0
 50
180.0
  0
ENDBLK
  5
309
100
AcDbEntity
  8
0
  6
BYBLOCK
 62
0
100
AcDbBlockEnd
  0
BLOCK
  5
30A
100
AcDbEntity
  8
0
100
AcDbBlockBegin
 62
2
  6
CONTINUOUS
  2
*D20
 70
65
 10
0.0
 20
0.0
  3
*D20
  1

  0
TEXT
  5
30B
100
AcDbEntity
  8
0
100
AcDbText
 62
5
  6
CONTINUOUS
 10
795.7072789388
 20
502.2512721275
  7
STANDARD
 40
14.0
  1
88
 41
0.7857142857
 72
1
 11
806.7072789388
 21
502.2512721275
100
AcDbText
  0
LINE
  5
30C
100
AcDbEntity
  8
0
100
AcDbLine
 62
2
  6
CONTINUOUS
 10
850.7024386374
 20
550.9737151252
 11
850.7024386374
 21
492.7512721275
  0
LINE
  5
30D
100
AcDbEntity
  8
0
100
AcDbLine
 62
2
  6
CONTINUOUS
 10
762.7121192403
 20
550.9737151252
 11
762.7121192403
 21
492.7512721275
  0
LINE
  5
30E
100
AcDbEntity
  8
0
100
AcDbLine
 62
2
  6
CONTINUOUS
 10
850.7024386374
 20
498.7512721275
 11
878.7024386374
 21
498.7512721275
  0
LINE
  5
30F
100
AcDbEntity
  8
0
100
AcDbLine
 62
2
  6
CONTINUOUS
 10
878.7024386374
 20
498.7512721275
 11
806.7072789388
 21
498.7512721275
  0
LINE
  5
310
100
AcDbEntity
  8
0
100
AcDbLine
 62
2
  6
CONTINUOUS
 10
762.7121192403
 20
498.7512721275
 11
734.7121192403
 21
498.7512721275
  0
LINE
  5
311
100
AcDbEntity
  8
0
100
AcDbLine
 62
2
  6
CONTINUOUS
 10
734.7121192403
 20
498.7512721275
 11
806.7072789388
 21
498.7512721275
  0
INSERT
  5
312
100
AcDbEntity
  8
0
100
AcDbBlockReference
 62
2
  6
CONTINUOUS
  2
_FILLED
 10
850.7024386374
 20
498.7512721275
 41
14.0
 42
14.0
 43
14.0
 50
180.0
  0
INSERT
  5
313
100
AcDbEntity
  8
0
100
AcDbBlockReference
 62
2
  6
CONTINUOUS
  2
_FILLED
 10
762.7121192403
 20
498.7512721275
 41
14.0
 42
14.0
 43
14.0
  0
ENDBLK
  5
314
100
AcDbEntity
  8
0
  6
BYBLOCK
 62
0
100
AcDbBlockEnd
  0
ENDSEC
  0
SECTION
  2
ENTITIES
  0
LINE
  5
315
100
AcDbEntity
  8
0
100
AcDbLine
 62
7
  6
CONTINUOUS
 10
0.0
 20
0.0
 11
1680.0
 21
0.0
  0
LINE
  5
316
100
AcDbEntity
  8
0
100
AcDbLine
 62
7
  6
CONTINUOUS
 10
1680.0
 20
0.0
 11
1680.0
 21
1188.0
  0
LINE
  5
317
100
AcDbEntity
  8
0
100
AcDbLine
 62
7
  6
CONTINUOUS
 10
0.0
 20
1188.0
 11
1680.0
 21
1188.0
  0
LINE
  5
318
100
AcDbEntity
  8
0
100
AcDbLine
 62
7
  6
CONTINUOUS
 10
0.0
 20
0.0
 11
0.0
 21
1188.0
  0
ARC
  5
319
100
AcDbEntity
  8
0
100
AcDbCircle
 62
7
  6
CONTINUOUS
 10
157.6270091427
 20
38.5281159109
 40
4.6553292087
100
AcDbArc
 50
179.9950727115
 51
191.084942217
  0
LINE
  5
31A
100
AcDbEntity
  8
0
100
AcDbLine
 62
7
  6
CONTINUOUS
 10
153.3960262611
 20
35.9149475388
 11
153.2234789448
 21
36.7933589718
  0
LINE
  5
31B
100
AcDbEntity
  8
0
100
AcDbLine
 62
7
  6
CONTINUOUS
 10
153.2234789448
 20
36.7933589718
 11
153.0584954011
 21
37.6332644201
  0
SPLINE
  5
31C
100
AcDbEntity
  8
0
100
AcDbSpline
 62
7
  6
CONTINUOUS
 70
0
 71
3
 72
18
 73
14
 74
0
 42
0.0000001
 43
0.0000001
 44
0.0000000001
 40
0.0
 40
0.0
 40
0.0
 40
0.0
 40
0.0558036403
 40
0.1125696229
 40
0.1710841366
 40
0.2318390776
 40
0.3598643911
 40
0.4948070992
 40
0.6310939063
 40
0.762587629
 40
0.8852275775
 40
0.9434360545
 40
1.0
 40
1.0
 40
1.0
 40
1.0
 10
196.4230621073
 20
369.35945266
 30
0.0
 10
196.315964197
 20
369.9045944136
 30
0.0
 10
195.9710501285
 20
370.983150577
 30
0.0
 10
195.0930637238
 20
372.4581966744
 30
0.0
 10
193.8863421146
 20
373.7471112792
 30
0.0
 10
191.8683469996
 20
375.181586382
 30
0.0
 10
188.7598098399
 20
376.2708327281
 30
0.0
 10
184.7262373838
 20
376.3425549751
 30
0.0
 10
180.8136004242
 20
375.2205859085
 30
0.0
 10
177.517305731
 20
373.0415203605
 30
0.0
 10
175.6079294665
 20
370.4839716543
 30
0.0
 10
174.8315516903
 20
368.2352579269
 30
0.0
 10
174.6992026771
 20
367.0888103378
 30
0.0
 10
174.6992026771
 20
366.5256786728
 30
0.0
  0
SPLINE
  5
31D
100
AcDbEntity
  8
0
100
AcDbSpline
 62
7
  6
CONTINUOUS
 70
0
 71
3
 72
18
 73
14
 74
0
 42
0.0000001
 43
0.0000001
 44
0.0000000001
 40
0.0
 40
0.0
 40
0.0
 40
0.0
 40
0.0558036403
 40
0.1125696229
 40
0.1710841366
 40
0.2318390776
 40
0.3598643911
 40
0.4948070992
 40
0.6310939063
 40
0.762587629
 40
0.8852275775
 40
0.9434360545
 40
1.0
 40
1.0
 40
1.0
 40
1.0
 10
196.4230621073
 20
428.1938853401
 30
0.0
 10
196.315964197
 20
428.7390270938
 30
0.0
 10
195.9710501285
 20
429.8175832571
 30
0.0
 10
195.0930637238
 20
431.2926293545
 30
0.0
 10
193.8863421146
 20
432.5815439593
 30
0.0
 10
191.8683469996
 20
434.0160190621
 30
0.0
 10
188.7598098399
 20
435.1052654082
 30
0.0
 10
184.7262373838
 20
435.1769876552
 30
0.0
 10
180.8136004242
 20
434.0550185886
 30
0.0
 10
177.517305731
 20
431.8759530406
 30
0.0
 10
175.6079294665
 20
429.3184043344
 30
0.0
 10
174.8315516903
 20
427.0696906071
 30
0.0
 10
174.6992026771
 20
425.923243018
 30
0.0
 10
174.6992026771
 20
425.360111353
 30
0.0
  0
SPLINE
  5
31E
100
AcDbEntity
  8
0
100
AcDbSpline
 62
7
  6
CONTINUOUS
 70
0
 71
3
 72
18
 73
14
 74
0
 42
0.0000001
 43
0.0000001
 44
0.0000000001
 40
0.0
 40
0.0
 40
0.0
 40
0.0
 40
0.0558036403
 40
0.1125696229
 40
0.1710841366
 40
0.2318390776
 40
0.3598643911
 40
0.4948070992
 40
0.6310939063
 40
0.762587629
 40
0.8852275775
 40
0.9434360545
 40
1.0
 40
1.0
 40
1.0
 40
1.0
 10
196.4230621073
 20
487.0283180202
 30
0.0
 10
196.315964197
 20
487.5734597739
 30
0.0
 10
195.9710501285
 20
488.6520159372
 30
0.0
 10
195.0930637238
 20
490.1270620346
 30
0.0
 10
193.8863421146
 20
491.4159766394
 30
0.0
 10
191.8683469996
 20
492.8504517422
 30
0.0
 10
188.7598098399
 20
493.9396980883
 30
0.0
 10
184.7262373838
 20
494.0114203354
 30
0.0
 10
180.8136004242
 20
492.8894512687
 30
0.0
 10
177.517305731
 20
490.7103857207
 30
0.0
 10
175.6079294665
 20
488.1528370146
 30
0.0
 10
174.8315516903
 20
485.9041232872
 30
0.0
 10
174.6992026771
 20
484.7576756981
 30
0.0
 10
174.6992026771
 20
484.1945440331
 30
0.0
  0
SPLINE
  5
31F
100
AcDbEntity
  8
0
100
AcDbSpline
 62
7
  6
CONTINUOUS
 70
0
 71
3
 72
12
 73
8
 74
0
 42
0.0000001
 43
0.0000001
 44
0.0000000001
 40
0.0
 40
0.0
 40
0.0
 40
0.0
 40
0.1116043369
 40
0.2266950416
 40
0.4699105075
 40
0.7309279221
 40
1.0
 40
1.0
 40
1.0
 40
1.0
 10
152.9716799512
 20
321.2606510811
 30
0.0
 10
152.9716799512
 20
321.6381772595
 30
0.0
 10
153.0653805896
 20
322.4078198995
 30
0.0
 10
153.6136396509
 20
323.9119570142
 30
0.0
 10
154.9558721344
 20
325.5981716382
 30
0.0
 10
157.2357809666
 20
326.969159147
 30
0.0
 10
159.0189710405
 20
327.375365931
 30
0.0
 10
159.9272338712
 20
327.4346473255
 30
0.0
  0
LINE
  5
320
100
AcDbEntity
  8
0
100
AcDbLine
 62
7
  6
CONTINUOUS
 10
152.9716799512
 20
38.5285162572
 11
152.9716799512
 21
321.2606510811
  0
LINE
  5
321
100
AcDbEntity
  8
0
100
AcDbLine
 62
7
  6
CONTINUOUS
 10
173.8779049427
 20
266.0378949917
 11
168.9096521427
 21
265.7136221659
  0
SPLINE
  5
322
100
AcDbEntity
  8
0
100
AcDbSpline
 62
7
  6
CONTINUOUS
 70
0
 71
3
 72
11
 73
7
 74
0
 42
0.0000001
 43
0.0000001
 44
0.0000000001
 40
0.0
 40
0.0
 40
0.0
 40
0.0
 40
0.2685095129
 40
0.5263681988
 40
0.7699439704
 40
1.0
 40
1.0
 40
1.0
 40
1.0
 10
168.9096521427
 20
265.7136221659
 30
0.0
 10
168.5098444704
 20
265.6875271243
 30
0.0
 10
167.7165758679
 20
265.7274037451
 30
0.0
 10
166.6062793402
 20
266.0684134873
 30
0.0
 10
165.6756207242
 20
266.666632533
 30
0.0
 10
165.2180552545
 20
267.2251100824
 30
0.0
 10
165.0503418395
 20
267.5246316724
 30
0.0
  0
LINE
  5
323
100
AcDbEntity
  8
0
100
AcDbLine
 62
7
  6
CONTINUOUS
 10
173.8779049427
 20
89.5345969513
 11
168.9096521427
 21
89.2103241255
  0
SPLINE
  5
324
100
AcDbEntity
  8
0
100
AcDbSpline
 62
7
  6
CONTINUOUS
 70
0
 71
3
 72
11
 73
7
 74
0
 42
0.0000001
 43
0.0000001
 44
0.0000000001
 40
0.0
 40
0.0
 40
0.0
 40
0.0
 40
0.2685095129
 40
0.5263681988
 40
0.7699439704
 40
1.0
 40
1.0
 40
1.0
 40
1.0
 10
168.9096521427
 20
89.2103241255
 30
0.0
 10
168.5098444704
 20
89.1842290839
 30
0.0
 10
167.7165758679
 20
89.2241057047
 30
0.0
 10
166.6062793402
 20
89.5651154469
 30
0.0
 10
165.6756207242
 20
90.1633344926
 30
0.0
 10
165.2180552545
 20
90.721812042
 30
0.0
 10
165.0503418395
 20
91.021333632
 30
0.0
  0
SPLINE
  5
325
100
AcDbEntity
  8
0
100
AcDbSpline
 62
7
  6
CONTINUOUS
 70
0
 71
3
 72
9
 73
5
 74
0
 42
0.0000001
 43
0.0000001
 44
0.0000000001
 40
0.0
 40
0.0
 40
0.0
 40
0.0
 40
0.2446276037
 40
1.0
 40
1.0
 40
1.0
 40
1.0
 10
277.9664172923
 20
354.4170173295
 30
0.0
 10
278.0020979839
 20
354.5606363053
 30
0.0
 10
278.1289195592
 20
355.152377429
 30
0.0
 10
278.179859702
 20
355.7597058799
 30
0.0
 10
278.179859702
 20
356.2166603886
 30
0.0
  0
SPLINE
  5
326
100
AcDbEntity
  8
0
100
AcDbSpline
 62
7
  6
CONTINUOUS
 70
0
 71
3
 72
17
 73
13
 74
0
 42
0.0000001
 43
0.0000001
 44
0.0000000001
 40
0.0
 40
0.0
 40
0.0
 40
0.0
 40
0.0561157061
 40
0.1137183969
 40
0.2346279793
 40
0.3640177097
 40
0.4988247173
 40
0.6338918155
 40
0.7639665402
 40
0.8857090394
 40
0.9436553315
 40
1.0
 40
1.0
 40
1.0
 40
1.0
 10
182.3239347027
 20
299.4792409534
 30
0.0
 10
182.3239347027
 20
298.952419695
 30
0.0
 10
182.2084182759
 20
297.8816406338
 30
0.0
 10
181.5290321551
 20
295.7730563461
 30
0.0
 10
179.8493510087
 20
293.336385193
 30
0.0
 10
176.8989340243
 20
291.1530497225
 30
0.0
 10
173.3260369259
 20
289.8624487139
 30
0.0
 10
169.5297229821
 20
289.6054306927
 30
0.0
 10
165.9329973432
 20
290.412230165
 30
0.0
 10
163.3905487852
 20
291.9580618798
 30
0.0
 10
161.8935563873
 20
293.6085763702
 30
0.0
 10
161.3421611203
 20
294.5398448477
 30
0.0
 10
161.1227914551
 20
295.0211836498
 30
0.0
  0
ARC
  5
327
100
AcDbEntity
  8
0
100
AcDbCircle
 62
7
  6
CONTINUOUS
 10
167.8395632842
 20
298.0833723601
 40
7.3818712737
100
AcDbArc
 50
198.2311486418
 51
204.5083301581
  0
SPLINE
  5
328
100
AcDbEntity
  8
0
100
AcDbSpline
 62
7
  6
CONTINUOUS
 70
0
 71
3
 72
17
 73
13
 74
0
 42
0.0000001
 43
0.0000001
 44
0.0000000001
 40
0.0
 40
0.0
 40
0.0
 40
0.0
 40
0.0561157061
 40
0.1137183969
 40
0.2346279793
 40
0.3640177097
 40
0.4988247173
 40
0.6338918155
 40
0.7639665402
 40
0.8857090394
 40
0.9436553315
 40
1.0
 40
1.0
 40
1.0
 40
1.0
 10
182.3239347027
 20
240.6448082733
 30
0.0
 10
182.3239347027
 20
240.1179870148
 30
0.0
 10
182.2084182759
 20
239.0472079537
 30
0.0
 10
181.5290321551
 20
236.938623666
 30
0.0
 10
179.8493510087
 20
234.5019525129
 30
0.0
 10
176.8989340243
 20
232.3186170424
 30
0.0
 10
173.3260369259
 20
231.0280160337
 30
0.0
 10
169.5297229821
 20
230.7709980126
 30
0.0
 10
165.9329973432
 20
231.5777974849
 30
0.0
 10
163.3905487852
 20
233.1236291997
 30
0.0
 10
161.8935563873
 20
234.7741436901
 30
0.0
 10
161.3421611203
 20
235.7054121676
 30
0.0
 10
161.1227914551
 20
236.1867509696
 30
0.0
  0
ARC
  5
329
100
AcDbEntity
  8
0
100
AcDbCircle
 62
7
  6
CONTINUOUS
 10
167.8395632842
 20
239.24893968
 40
7.3818712737
100
AcDbArc
 50
198.2311486418
 51
204.5083301581
  0
SPLINE
  5
32A
100
AcDbEntity
  8
0
100
AcDbSpline
 62
7
  6
CONTINUOUS
 70
0
 71
3
 72
17
 73
13
 74
0
 42
0.0000001
 43
0.0000001
 44
0.0000000001
 40
0.0
 40
0.0
 40
0.0
 40
0.0
 40
0.0561157061
 40
0.1137183969
 40
0.2346279793
 40
0.3640177097
 40
0.4988247173
 40
0.6338918155
 40
0.7639665402
 40
0.8857090394
 40
0.9436553315
 40
1.0
 40
1.0
 40
1.0
 40
1.0
 10
182.3239347027
 20
181.8103755932
 30
0.0
 10
182.3239347027
 20
181.2835543347
 30
0.0
 10
182.2084182759
 20
180.2127752736
 30
0.0
 10
181.5290321551
 20
178.1041909858
 30
0.0
 10
179.8493510087
 20
175.6675198328
 30
0.0
 10
176.8989340243
 20
173.4841843622
 30
0.0
 10
173.3260369259
 20
172.1935833536
 30
0.0
 10
169.5297229821
 20
171.9365653325
 30
0.0
 10
165.9329973432
 20
172.7433648047
 30
0.0
 10
163.3905487852
 20
174.2891965195
 30
0.0
 10
161.8935563873
 20
175.9397110099
 30
0.0
 10
161.3421611203
 20
176.8709794875
 30
0.0
 10
161.1227914551
 20
177.3523182895
 30
0.0
  0
ARC
  5
32B
100
AcDbEntity
  8
0
100
AcDbCircle
 62
7
  6
CONTINUOUS
 10
167.8395632842
 20
180.4145069999
 40
7.3818712737
100
AcDbArc
 50
198.2311486418
 51
204.5083301581
  0
SPLINE
  5
32C
100
AcDbEntity
  8
0
100
AcDbSpline
 62
7
  6
CONTINUOUS
 70
0
 71
3
 72
9
 73
5
 74
0
 42
0.0000001
 43
0.0000001
 44
0.0000000001
 40
0.0
 40
0.0
 40
0.0
 40
0.0
 40
0.4851826184
 40
1.0
 40
1.0
 40
1.0
 40
1.0
 10
276.6636123173
 20
410.6939714431
 30
0.0
 10
277.1581729389
 20
411.2687622221
 30
0.0
 10
277.9479233601
 20
412.6675414668
 30
0.0
 10
278.179859702
 20
414.2465073575
 30
0.0
 10
278.179859702
 20
415.0510930687
 30
0.0
  0
SPLINE
  5
32D
100
AcDbEntity
  8
0
100
AcDbSpline
 62
7
  6
CONTINUOUS
 70
0
 71
3
 72
17
 73
13
 74
0
 42
0.0000001
 43
0.0000001
 44
0.0000000001
 40
0.0
 40
0.0
 40
0.0
 40
0.0
 40
0.0561157061
 40
0.1137183969
 40
0.2346279793
 40
0.3640177097
 40
0.4988247173
 40
0.6338918155
 40
0.7639665402
 40
0.8857090394
 40
0.9436553315
 40
1.0
 40
1.0
 40
1.0
 40
1.0
 10
182.3239347027
 20
122.975942913
 30
0.0
 10
182.3239347027
 20
122.4491216546
 30
0.0
 10
182.2084182759
 20
121.3783425934
 30
0.0
 10
181.5290321551
 20
119.2697583057
 30
0.0
 10
179.8493510087
 20
116.8330871526
 30
0.0
 10
176.8989340243
 20
114.6497516821
 30
0.0
 10
173.3260369259
 20
113.3591506735
 30
0.0
 10
169.5297229821
 20
113.1021326524
 30
0.0
 10
165.9329973432
 20
113.9089321246
 30
0.0
 10
163.3905487852
 20
115.4547638394
 30
0.0
 10
161.8935563873
 20
117.1052783298
 30
0.0
 10
161.3421611203
 20
118.0365468074
 30
0.0
 10
161.1227914551
 20
118.5178856094
 30
0.0
  0
ARC
  5
32E
100
AcDbEntity
  8
0
100
AcDbCircle
 62
7
  6
CONTINUOUS
 10
167.8395632842
 20
121.5800743197
 40
7.3818712737
100
AcDbArc
 50
198.2311486418
 51
204.5083301581
  0
SPLINE
  5
32F
100
AcDbEntity
  8
0
100
AcDbSpline
 62
7
  6
CONTINUOUS
 70
0
 71
3
 72
17
 73
13
 74
0
 42
0.0000001
 43
0.0000001
 44
0.0000000001
 40
0.0
 40
0.0
 40
0.0
 40
0.0
 40
0.0561157061
 40
0.1137183969
 40
0.2346279793
 40
0.3640177097
 40
0.4988247173
 40
0.6338918155
 40
0.7639665402
 40
0.8857090394
 40
0.9436553315
 40
1.0
 40
1.0
 40
1.0
 40
1.0
 10
182.3239347027
 20
64.1415102329
 30
0.0
 10
182.3239347027
 20
63.6146889745
 30
0.0
 10
182.2084182759
 20
62.5439099133
 30
0.0
 10
181.5290321551
 20
60.4353256256
 30
0.0
 10
179.8493510087
 20
57.9986544725
 30
0.0
 10
176.8989340243
 20
55.815319002
 30
0.0
 10
173.3260369259
 20
54.5247179933
 30
0.0
 10
169.5297229821
 20
54.2676999722
 30
0.0
 10
165.9329973432
 20
55.0744994445
 30
0.0
 10
163.3905487852
 20
56.6203311593
 30
0.0
 10
161.8935563873
 20
58.2708456497
 30
0.0
 10
161.3421611203
 20
59.2021141272
 30
0.0
 10
161.1227914551
 20
59.6834529293
 30
0.0
  0
ARC
  5
330
100
AcDbEntity
  8
0
100
AcDbCircle
 62
7
  6
CONTINUOUS
 10
167.8395632842
 20
62.7456416396
 40
7.3818712737
100
AcDbArc
 50
198.2311486418
 51
204.5083301581
  0
SPLINE
  5
331
100
AcDbEntity
  8
0
100
AcDbSpline
 62
7
  6
CONTINUOUS
 70
0
 71
3
 72
9
 73
5
 74
0
 42
0.0000001
 43
0.0000001
 44
0.0000000001
 40
0.0
 40
0.0
 40
0.0
 40
0.0
 40
0.4851826184
 40
1.0
 40
1.0
 40
1.0
 40
1.0
 10
276.6636123173
 20
469.5284041232
 30
0.0
 10
277.1581729389
 20
470.1031949022
 30
0.0
 10
277.9479233601
 20
471.501974147
 30
0.0
 10
278.179859702
 20
473.0809400377
 30
0.0
 10
278.179859702
 20
473.8855257488
 30
0.0
  0
SPLINE
  5
332
100
AcDbEntity
  8
0
100
AcDbSpline
 62
7
  6
CONTINUOUS
 70
0
 71
3
 72
15
 73
11
 74
0
 42
0.0000001
 43
0.0000001
 44
0.0000000001
 40
0.0
 40
0.0
 40
0.0
 40
0.0
 40
0.1206288431
 40
0.252440576
 40
0.3910155376
 40
0.5304128924
 40
0.6645185817
 40
0.7883764366
 40
0.8996274904
 40
1.0
 40
1.0
 40
1.0
 40
1.0
 10
261.1894368824
 20
318.7455901738
 30
0.0
 10
261.1894368824
 20
317.8253557193
 30
0.0
 10
260.8869198275
 20
315.8952244462
 30
0.0
 10
259.7293517523
 20
313.1222505026
 30
0.0
 10
257.9448513146
 20
310.5293254646
 30
0.0
 10
255.6758930743
 20
308.3240596676
 30
0.0
 10
253.1015371796
 20
306.6803554531
 30
0.0
 10
250.4174441968
 20
305.733360013
 30
0.0
 10
247.8239520496
 20
305.5703551222
 30
0.0
 10
246.2319784031
 20
306.0520062154
 30
0.0
 10
245.5641504452
 20
306.4265881944
 30
0.0
  0
SPLINE
  5
333
100
AcDbEntity
  8
0
100
AcDbSpline
 62
7
  6
CONTINUOUS
 70
0
 71
3
 72
15
 73
11
 74
0
 42
0.0000001
 43
0.0000001
 44
0.0000000001
 40
0.0
 40
0.0
 40
0.0
 40
0.0
 40
0.1206288431
 40
0.252440576
 40
0.3910155376
 40
0.5304128924
 40
0.6645185817
 40
0.7883764366
 40
0.8996274904
 40
1.0
 40
1.0
 40
1.0
 40
1.0
 10
261.1894368824
 20
259.9111574937
 30
0.0
 10
261.1894368824
 20
258.9909230392
 30
0.0
 10
260.8869198275
 20
257.060791766
 30
0.0
 10
259.7293517523
 20
254.2878178225
 30
0.0
 10
257.9448513146
 20
251.6948927845
 30
0.0
 10
255.6758930743
 20
249.4896269874
 30
0.0
 10
253.1015371796
 20
247.845922773
 30
0.0
 10
250.4174441968
 20
246.8989273328
 30
0.0
 10
247.8239520496
 20
246.7359224421
 30
0.0
 10
246.2319784031
 20
247.2175735353
 30
0.0
 10
245.5641504452
 20
247.5921555143
 30
0.0
  0
SPLINE
  5
334
100
AcDbEntity
  8
0
100
AcDbSpline
 62
7
  6
CONTINUOUS
 70
0
 71
3
 72
15
 73
11
 74
0
 42
0.0000001
 43
0.0000001
 44
0.0000000001
 40
0.0
 40
0.0
 40
0.0
 40
0.0
 40
0.1206288431
 40
0.252440576
 40
0.3910155376
 40
0.5304128924
 40
0.6645185817
 40
0.7883764366
 40
0.8996274904
 40
1.0
 40
1.0
 40
1.0
 40
1.0
 10
261.1894368824
 20
201.0767248136
 30
0.0
 10
261.1894368824
 20
200.156490359
 30
0.0
 10
260.8869198275
 20
198.2263590859
 30
0.0
 10
259.7293517523
 20
195.4533851423
 30
0.0
 10
257.9448513146
 20
192.8604601044
 30
0.0
 10
255.6758930743
 20
190.6551943073
 30
0.0
 10
253.1015371796
 20
189.0114900928
 30
0.0
 10
250.4174441968
 20
188.0644946527
 30
0.0
 10
247.8239520496
 20
187.901489762
 30
0.0
 10
246.2319784031
 20
188.3831408551
 30
0.0
 10
245.5641504452
 20
188.7577228341
 30
0.0
  0
SPLINE
  5
335
100
AcDbEntity
  8
0
100
AcDbSpline
 62
7
  6
CONTINUOUS
 70
0
 71
3
 72
15
 73
11
 74
0
 42
0.0000001
 43
0.0000001
 44
0.0000000001
 40
0.0
 40
0.0
 40
0.0
 40
0.0
 40
0.1206288431
 40
0.252440576
 40
0.3910155376
 40
0.5304128924
 40
0.6645185817
 40
0.7883764366
 40
0.8996274904
 40
1.0
 40
1.0
 40
1.0
 40
1.0
 10
261.1894368824
 20
142.2422921334
 30
0.0
 10
261.1894368824
 20
141.3220576789
 30
0.0
 10
260.8869198275
 20
139.3919264058
 30
0.0
 10
259.7293517523
 20
136.6189524622
 30
0.0
 10
257.9448513146
 20
134.0260274243
 30
0.0
 10
255.6758930743
 20
131.8207616272
 30
0.0
 10
253.1015371796
 20
130.1770574127
 30
0.0
 10
250.4174441968
 20
129.2300619726
 30
0.0
 10
247.8239520496
 20
129.0670570819
 30
0.0
 10
246.2319784031
 20
129.548708175
 30
0.0
 10
245.5641504452
 20
129.923290154
 30
0.0
  0
SPLINE
  5
336
100
AcDbEntity
  8
0
100
AcDbSpline
 62
7
  6
CONTINUOUS
 70
0
 71
3
 72
15
 73
11
 74
0
 42
0.0000001
 43
0.0000001
 44
0.0000000001
 40
0.0
 40
0.0
 40
0.0
 40
0.0
 40
0.1206288431
 40
0.252440576
 40
0.3910155376
 40
0.5304128924
 40
0.6645185817
 40
0.7883764366
 40
0.8996274904
 40
1.0
 40
1.0
 40
1.0
 40
1.0
 10
261.1894368824
 20
83.4078594533
 30
0.0
 10
261.1894368824
 20
82.4876249988
 30
0.0
 10
260.8869198275
 20
80.5574937257
 30
0.0
 10
259.7293517523
 20
77.7845197821
 30
0.0
 10
257.9448513146
 20
75.1915947441
 30
0.0
 10
255.6758930743
 20
72.986328947
 30
0.0
 10
253.1015371796
 20
71.3426247326
 30
0.0
 10
250.4174441968
 20
70.3956292925
 30
0.0
 10
247.8239520496
 20
70.2326244017
 30
0.0
 10
246.2319784031
 20
70.7142754949
 30
0.0
 10
245.5641504452
 20
71.0888574739
 30
0.0
  0
SPLINE
  5
337
100
AcDbEntity
  8
0
100
AcDbSpline
 62
7
  6
CONTINUOUS
 70
0
 71
3
 72
9
 73
5
 74
0
 42
0.0000001
 43
0.0000001
 44
0.0000000001
 40
0.0
 40
0.0
 40
0.0
 40
0.0
 40
0.5614431354
 40
1.0
 40
1.0
 40
1.0
 40
1.0
 10
318.1496013093
 20
355.3296259861
 30
0.0
 10
318.1496013093
 20
356.1322518044
 30
0.0
 10
318.0332966008
 20
357.5651151189
 30
0.0
 10
317.5037690668
 20
358.9413127709
 30
0.0
 10
317.1289602393
 20
359.4438914113
 30
0.0
  0
SPLINE
  5
338
100
AcDbEntity
  8
0
100
AcDbSpline
 62
7
  6
CONTINUOUS
 70
0
 71
3
 72
9
 73
5
 74
0
 42
0.0000001
 43
0.0000001
 44
0.0000000001
 40
0.0
 40
0.0
 40
0.0
 40
0.0
 40
0.5614431354
 40
1.0
 40
1.0
 40
1.0
 40
1.0
 10
318.1496013093
 20
296.495193306
 30
0.0
 10
318.1496013093
 20
297.2978191243
 30
0.0
 10
318.0332966008
 20
298.7306824388
 30
0.0
 10
317.5037690668
 20
300.1068800908
 30
0.0
 10
317.1289602393
 20
300.6094587312
 30
0.0
  0
SPLINE
  5
339
100
AcDbEntity
  8
0
100
AcDbSpline
 62
7
  6
CONTINUOUS
 70
0
 71
3
 72
9
 73
5
 74
0
 42
0.0000001
 43
0.0000001
 44
0.0000000001
 40
0.0
 40
0.0
 40
0.0
 40
0.0
 40
0.5614431354
 40
1.0
 40
1.0
 40
1.0
 40
1.0
 10
318.1496013093
 20
237.6607606259
 30
0.0
 10
318.1496013093
 20
238.4633864441
 30
0.0
 10
318.0332966008
 20
239.8962497586
 30
0.0
 10
317.5037690668
 20
241.2724474107
 30
0.0
 10
317.1289602393
 20
241.7750260511
 30
0.0
  0
SPLINE
  5
33A
100
AcDbEntity
  8
0
100
AcDbSpline
 62
7
  6
CONTINUOUS
 70
0
 71
3
 72
9
 73
5
 74
0
 42
0.0000001
 43
0.0000001
 44
0.0000000001
 40
0.0
 40
0.0
 40
0.0
 40
0.0
 40
0.5614431354
 40
1.0
 40
1.0
 40
1.0
 40
1.0
 10
318.1496013093
 20
178.8263279457
 30
0.0
 10
318.1496013093
 20
179.628953764
 30
0.0
 10
318.0332966008
 20
181.0618170785
 30
0.0
 10
317.5037690668
 20
182.4380147305
 30
0.0
 10
317.1289602393
 20
182.940593371
 30
0.0
  0
SPLINE
  5
33B
100
AcDbEntity
  8
0
100
AcDbSpline
 62
7
  6
CONTINUOUS
 70
0
 71
3
 72
9
 73
5
 74
0
 42
0.0000001
 43
0.0000001
 44
0.0000000001
 40
0.0
 40
0.0
 40
0.0
 40
0.0
 40
0.5614431354
 40
1.0
 40
1.0
 40
1.0
 40
1.0
 10
318.1496013093
 20
119.9918952656
 30
0.0
 10
318.1496013093
 20
120.7945210839
 30
0.0
 10
318.0332966008
 20
122.2273843984
 30
0.0
 10
317.5037690668
 20
123.6035820504
 30
0.0
 10
317.1289602393
 20
124.1061606908
 30
0.0
  0
SPLINE
  5
33C
100
AcDbEntity
  8
0
100
AcDbSpline
 62
7
  6
CONTINUOUS
 70
0
 71
3
 72
13
 73
9
 74
0
 42
0.0000001
 43
0.0000001
 44
0.0000000001
 40
0.0
 40
0.0
 40
0.0
 40
0.0
 40
0.0822688704
 40
0.1709855499
 40
0.271082211
 40
0.3855592229
 40
0.6617846367
 40
1.0
 40
1.0
 40
1.0
 40
1.0
 10
329.4627250499
 20
432.6286970205
 30
0.0
 10
329.6087629829
 20
432.670469184
 30
0.0
 10
329.8998223215
 20
432.8072732245
 30
0.0
 10
330.2756655002
 20
433.1460850482
 30
0.0
 10
330.5961681794
 20
433.6100112266
 30
0.0
 10
330.9722060599
 20
434.4383372629
 30
0.0
 10
331.2644898654
 20
435.7644456344
 30
0.0
 10
331.3266240073
 20
436.9000403323
 30
0.0
 10
331.3266240073
 20
437.52449417
 30
0.0
  0
SPLINE
  5
33D
100
AcDbEntity
  8
0
100
AcDbSpline
 62
7
  6
CONTINUOUS
 70
0
 71
3
 72
18
 73
14
 74
0
 42
0.0000001
 43
0.0000001
 44
0.0000000001
 40
0.0
 40
0.0
 40
0.0
 40
0.0
 40
0.1404372681
 40
0.2952288714
 40
0.4541431988
 40
0.6064868117
 40
0.742311875
 40
0.8015117351
 40
0.8539276834
 40
0.8992712522
 40
0.937796346
 40
0.9706035676
 40
1.0
 40
1.0
 40
1.0
 40
1.0
 10
331.3266240073
 20
437.52449417
 30
0.0
 10
331.3266240073
 20
438.4275589057
 30
0.0
 10
331.1767099856
 20
440.3265782844
 30
0.0
 10
330.6240406361
 20
443.1986535327
 30
0.0
 10
329.7660910706
 20
446.0756771482
 30
0.0
 10
328.6682038645
 20
448.7377713485
 30
0.0
 10
327.5793826305
 20
450.6975727892
 30
0.0
 10
326.638195905
 20
451.9830392818
 30
0.0
 10
325.9610258136
 20
452.7344209463
 30
0.0
 10
325.2917096261
 20
453.3052284289
 30
0.0
 10
324.6384898658
 20
453.6853511062
 30
0.0
 10
324.0063283058
 20
453.8641651584
 30
0.0
 10
323.5963041945
 20
453.8329746169
 30
0.0
 10
323.4145626252
 20
453.7809899142
 30
0.0
  0
SPLINE
  5
33E
100
AcDbEntity
  8
0
100
AcDbSpline
 62
7
  6
CONTINUOUS
 70
0
 71
3
 72
12
 73
8
 74
0
 42
0.0000001
 43
0.0000001
 44
0.0000000001
 40
0.0
 40
0.0
 40
0.0
 40
0.0
 40
0.3311514825
 40
0.6032385916
 40
0.8195392541
 40
0.9123896835
 40
1.0
 40
1.0
 40
1.0
 40
1.0
 10
327.0044670713
 20
392.6410275712
 30
0.0
 10
326.7127760952
 20
393.0425158201
 30
0.0
 10
326.1386004329
 20
393.7459010406
 30
0.0
 10
325.2091203942
 20
394.558111362
 30
0.0
 10
324.4081588251
 20
394.9497655248
 30
0.0
 10
323.8123576705
 20
395.0210773486
 30
0.0
 10
323.5407927799
 20
394.982663652
 30
0.0
 10
323.4145626252
 20
394.9465572341
 30
0.0
  0
SPLINE
  5
33F
100
AcDbEntity
  8
0
100
AcDbSpline
 62
7
  6
CONTINUOUS
 70
0
 71
3
 72
16
 73
12
 74
0
 42
0.0000001
 43
0.0000001
 44
0.0000000001
 40
0.0
 40
0.0
 40
0.0
 40
0.0
 40
0.1199576343
 40
0.251093735
 40
0.3892989211
 40
0.528357277
 40
0.6618161071
 40
0.7848432028
 40
0.8961316525
 40
0.9486224167
 40
1.0
 40
1.0
 40
1.0
 40
1.0
 10
278.179859702
 20
473.8855257488
 30
0.0
 10
278.179859702
 20
474.8976097404
 30
0.0
 10
277.7856186336
 20
477.023053333
 30
0.0
 10
276.2835385169
 20
479.982637494
 30
0.0
 10
274.0045809462
 20
482.610696758
 30
0.0
 10
271.1683784552
 20
484.6558538756
 30
0.0
 10
268.04177042
 20
485.921861956
 30
0.0
 10
264.9151536772
 20
486.279834462
 30
0.0
 10
262.4927513839
 20
485.73635281
 30
0.0
 10
260.9181458896
 20
484.8089050418
 30
0.0
 10
260.27018497
 20
484.20641187
 30
0.0
 10
259.9874643267
 20
483.8778268358
 30
0.0
  0
SPLINE
  5
340
100
AcDbEntity
  8
0
100
AcDbSpline
 62
7
  6
CONTINUOUS
 70
0
 71
3
 72
16
 73
12
 74
0
 42
0.0000001
 43
0.0000001
 44
0.0000000001
 40
0.0
 40
0.0
 40
0.0
 40
0.0
 40
0.1199576343
 40
0.251093735
 40
0.3892989211
 40
0.528357277
 40
0.6618161071
 40
0.7848432028
 40
0.8961316525
 40
0.9486224167
 40
1.0
 40
1.0
 40
1.0
 40
1.0
 10
278.179859702
 20
415.0510930687
 30
0.0
 10
278.179859702
 20
416.0631770603
 30
0.0
 10
277.7856186336
 20
418.1886206529
 30
0.0
 10
276.2835385169
 20
421.1482048138
 30
0.0
 10
274.0045809462
 20
423.7762640778
 30
0.0
 10
271.1683784552
 20
425.8214211955
 30
0.0
 10
268.04177042
 20
427.0874292758
 30
0.0
 10
264.9151536772
 20
427.4454017818
 30
0.0
 10
262.4927513839
 20
426.9019201299
 30
0.0
 10
260.9181458896
 20
425.9744723617
 30
0.0
 10
260.27018497
 20
425.3719791899
 30
0.0
 10
259.9874643267
 20
425.0433941556
 30
0.0
  0
SPLINE
  5
341
100
AcDbEntity
  8
0
100
AcDbSpline
 62
7
  6
CONTINUOUS
 70
0
 71
3
 72
16
 73
12
 74
0
 42
0.0000001
 43
0.0000001
 44
0.0000000001
 40
0.0
 40
0.0
 40
0.0
 40
0.0
 40
0.1199576343
 40
0.251093735
 40
0.3892989211
 40
0.528357277
 40
0.6618161071
 40
0.7848432028
 40
0.8961316525
 40
0.9486224167
 40
1.0
 40
1.0
 40
1.0
 40
1.0
 10
278.179859702
 20
356.2166603886
 30
0.0
 10
278.179859702
 20
357.2287443801
 30
0.0
 10
277.7856186336
 20
359.3541879727
 30
0.0
 10
276.2835385169
 20
362.3137721337
 30
0.0
 10
274.0045809462
 20
364.9418313977
 30
0.0
 10
271.1683784552
 20
366.9869885154
 30
0.0
 10
268.04177042
 20
368.2529965957
 30
0.0
 10
264.9151536772
 20
368.6109691017
 30
0.0
 10
262.4927513839
 20
368.0674874498
 30
0.0
 10
260.9181458896
 20
367.1400396816
 30
0.0
 10
260.27018497
 20
366.5375465098
 30
0.0
 10
259.9874643267
 20
366.2089614755
 30
0.0
  0
SPLINE
  5
342
100
AcDbEntity
  8
0
100
AcDbSpline
 62
7
  6
CONTINUOUS
 70
0
 71
3
 72
11
 73
7
 74
0
 42
0.0000001
 43
0.0000001
 44
0.0000000001
 40
0.0
 40
0.0
 40
0.0
 40
0.0
 40
0.2731894807
 40
0.5317255877
 40
0.7721907297
 40
1.0
 40
1.0
 40
1.0
 40
1.0
 10
188.1134852371
 20
459.1257301405
 30
0.0
 10
188.6009085573
 20
459.1575437667
 30
0.0
 10
189.5651312662
 20
459.0851111446
 30
0.0
 10
190.8681636
 20
458.5597278347
 30
0.0
 10
191.8540318659
 20
457.6657116388
 30
0.0
 10
192.2052284384
 20
456.8718436231
 30
0.0
 10
192.2837657013
 20
456.4721658703
 30
0.0
  0
LINE
  5
343
100
AcDbEntity
  8
0
100
AcDbLine
 62
7
  6
CONTINUOUS
 10
183.1452324371
 20
458.8014573148
 11
188.1134852371
 21
459.1257301405
  0
ARC
  5
344
100
AcDbEntity
  8
0
100
AcDbCircle
 62
7
  6
CONTINUOUS
 10
182.0146616897
 20
484.193917537
 40
7.3154590394
100
AcDbArc
 50
179.9950931879
 51
191.0837222388
  0
ARC
  5
345
100
AcDbEntity
  8
0
100
AcDbCircle
 62
7
  6
CONTINUOUS
 10
182.0146616897
 20
425.3594848569
 40
7.3154590394
100
AcDbArc
 50
179.9950931879
 51
191.0837222388
  0
ARC
  5
346
100
AcDbEntity
  8
0
100
AcDbCircle
 62
7
  6
CONTINUOUS
 10
182.0146616897
 20
366.5250521767
 40
7.3154590394
100
AcDbArc
 50
179.9950931879
 51
191.0837222388
  0
LINE
  5
347
100
AcDbEntity
  8
0
100
AcDbLine
 62
7
  6
CONTINUOUS
 10
159.9272338712
 20
327.4346473255
 11
214.6571411342
 21
331.006812913
  0
LINE
  5
348
100
AcDbEntity
  8
SURFACES
100
AcDbLine
 62
7
  6
CONTINUOUS
 10
215.9504288937
 20
331.2736610171
 11
287.9629562657
 21
358.158203947
  0
LINE
  5
349
100
AcDbEntity
  8
SURFACES
100
AcDbLine
 62
7
  6
CONTINUOUS
 10
288.8501588196
 20
358.66961617
 11
335.4897072553
 21
400.1799641163
  0
LINE
  5
34A
100
AcDbEntity
  8
SURFACES
100
AcDbLine
 62
7
  6
CONTINUOUS
 10
335.9526377618
 20
400.925456975
 11
345.551038199
 21
449.7894141861
  0
ARC
  5
34B
100
AcDbEntity
  8
0
100
AcDbCircle
 62
7
  6
CONTINUOUS
 10
174.9771547203
 20
64.1418113965
 40
7.3467799886
100
AcDbArc
 50
359.9976512971
 51
4.3596146078
  0
ARC
  5
34C
100
AcDbEntity
  8
0
100
AcDbCircle
 62
7
  6
CONTINUOUS
 10
174.9771547203
 20
122.9762440767
 40
7.3467799886
100
AcDbArc
 50
359.9976512971
 51
4.3596146078
  0
ARC
  5
34D
100
AcDbEntity
  8
0
100
AcDbCircle
 62
7
  6
CONTINUOUS
 10
174.9771547203
 20
181.8106767568
 40
7.3467799886
100
AcDbArc
 50
359.9976512971
 51
4.3596146078
  0
ARC
  5
34E
100
AcDbEntity
  8
0
100
AcDbCircle
 62
7
  6
CONTINUOUS
 10
174.9771547203
 20
240.6451094369
 40
7.3467799886
100
AcDbArc
 50
359.9976512971
 51
4.3596146078
  0
LINE
  5
34F
100
AcDbEntity
  8
SURFACES
100
AcDbLine
 62
7
  6
CONTINUOUS
 10
345.551038199
 20
449.7894141861
 11
345.570086504
 21
449.9838049797
  0
ARC
  5
350
100
AcDbEntity
  8
0
100
AcDbCircle
 62
7
  6
CONTINUOUS
 10
174.9771547203
 20
299.479542117
 40
7.3467799886
100
AcDbArc
 50
359.9976512971
 51
4.3596146078
  0
SPLINE
  5
351
100
AcDbEntity
  8
SURFACES
100
AcDbSpline
 62
7
  6
CONTINUOUS
 70
0
 71
3
 72
9
 73
5
 74
0
 42
0.0000001
 43
0.0000001
 44
0.0000000001
 40
0.0
 40
0.0
 40
0.0
 40
0.0
 40
0.5293241889
 40
1.0
 40
1.0
 40
1.0
 40
1.0
 10
335.4897072553
 20
400.1799641163
 30
0.0
 10
335.6069137506
 20
400.2842807868
 30
0.0
 10
335.8075015925
 20
400.5083742418
 30
0.0
 10
335.9257454941
 20
400.788552641
 30
0.0
 10
335.9526377618
 20
400.925456975
 30
0.0
  0
SPLINE
  5
352
100
AcDbEntity
  8
SURFACES
100
AcDbSpline
 62
7
  6
CONTINUOUS
 70
0
 71
3
 72
9
 73
5
 74
0
 42
0.0000001
 43
0.0000001
 44
0.0000000001
 40
0.0
 40
0.0
 40
0.0
 40
0.0
 40
0.2698103841
 40
1.0
 40
1.0
 40
1.0
 40
1.0
 10
287.9629562657
 20
358.158203947
 30
0.0
 10
288.0494961151
 20
358.1905119964
 30
0.0
 10
288.3653427566
 20
358.3219498942
 30
0.0
 10
288.6634175541
 20
358.5034118398
 30
0.0
 10
288.8501588196
 20
358.66961617
 30
0.0
  0
SPLINE
  5
353
100
AcDbEntity
  8
SURFACES
100
AcDbSpline
 62
7
  6
CONTINUOUS
 70
0
 71
3
 72
9
 73
5
 74
0
 42
0.0000001
 43
0.0000001
 44
0.0000000001
 40
0.0
 40
0.0
 40
0.0
 40
0.0
 40
0.2591818467
 40
1.0
 40
1.0
 40
1.0
 40
1.0
 10
214.6571411342
 20
331.006812913
 30
0.0
 10
214.7712025112
 20
331.0142575835
 30
0.0
 10
215.2100424378
 20
331.05768036
 30
0.0
 10
215.6443487688
 20
331.1593916732
 30
0.0
 10
215.9504288937
 20
331.2736610171
 30
0.0
  0
SPLINE
  5
354
100
AcDbEntity
  8
0
100
AcDbSpline
 62
7
  6
CONTINUOUS
 70
0
 71
3
 72
15
 73
11
 74
0
 42
0.0000001
 43
0.0000001
 44
0.0000000001
 40
0.0
 40
0.0
 40
0.0
 40
0.0
 40
0.0827215329
 40
0.1852468028
 40
0.3066049585
 40
0.4425044153
 40
0.5868170168
 40
0.7325155364
 40
0.8724331832
 40
1.0
 40
1.0
 40
1.0
 40
1.0
 10
309.7301920774
 20
104.292014845
 30
0.0
 10
310.2339005792
 20
104.4019424701
 30
0.0
 10
311.3013909885
 20
104.9102934129
 30
0.0
 10
312.7597785237
 20
106.1610741266
 30
0.0
 10
314.1851155959
 20
107.9047718207
 30
0.0
 10
315.4926574244
 20
110.0460617613
 30
0.0
 10
316.6076748986
 20
112.461047872
 30
0.0
 10
317.4624423027
 20
115.006401117
 30
0.0
 10
318.0061704891
 20
117.5288518611
 30
0.0
 10
318.1496013093
 20
119.1968317752
 30
0.0
 10
318.1496013093
 20
119.9918952656
 30
0.0
  0
SPLINE
  5
355
100
AcDbEntity
  8
0
100
AcDbSpline
 62
7
  6
CONTINUOUS
 70
0
 71
3
 72
15
 73
11
 74
0
 42
0.0000001
 43
0.0000001
 44
0.0000000001
 40
0.0
 40
0.0
 40
0.0
 40
0.0
 40
0.0827215329
 40
0.1852468028
 40
0.3066049585
 40
0.4425044153
 40
0.5868170168
 40
0.7325155364
 40
0.8724331832
 40
1.0
 40
1.0
 40
1.0
 40
1.0
 10
309.7301920774
 20
163.1264475252
 30
0.0
 10
310.2339005792
 20
163.2363751502
 30
0.0
 10
311.3013909885
 20
163.744726093
 30
0.0
 10
312.7597785237
 20
164.9955068067
 30
0.0
 10
314.1851155959
 20
166.7392045009
 30
0.0
 10
315.4926574244
 20
168.8804944415
 30
0.0
 10
316.6076748986
 20
171.2954805521
 30
0.0
 10
317.4624423027
 20
173.8408337971
 30
0.0
 10
318.0061704891
 20
176.3632845413
 30
0.0
 10
318.1496013093
 20
178.0312644554
 30
0.0
 10
318.1496013093
 20
178.8263279457
 30
0.0
  0
SPLINE
  5
356
100
AcDbEntity
  8
0
100
AcDbSpline
 62
7
  6
CONTINUOUS
 70
0
 71
3
 72
15
 73
11
 74
0
 42
0.0000001
 43
0.0000001
 44
0.0000000001
 40
0.0
 40
0.0
 40
0.0
 40
0.0
 40
0.0827215329
 40
0.1852468028
 40
0.3066049585
 40
0.4425044153
 40
0.5868170168
 40
0.7325155364
 40
0.8724331832
 40
1.0
 40
1.0
 40
1.0
 40
1.0
 10
309.7301920774
 20
221.9608802053
 30
0.0
 10
310.2339005792
 20
222.0708078303
 30
0.0
 10
311.3013909885
 20
222.5791587732
 30
0.0
 10
312.7597785237
 20
223.8299394868
 30
0.0
 10
314.1851155959
 20
225.573637181
 30
0.0
 10
315.4926574244
 20
227.7149271216
 30
0.0
 10
316.6076748986
 20
230.1299132323
 30
0.0
 10
317.4624423027
 20
232.6752664773
 30
0.0
 10
318.0061704891
 20
235.1977172214
 30
0.0
 10
318.1496013093
 20
236.8656971355
 30
0.0
 10
318.1496013093
 20
237.6607606259
 30
0.0
  0
SPLINE
  5
357
100
AcDbEntity
  8
0
100
AcDbSpline
 62
7
  6
CONTINUOUS
 70
0
 71
3
 72
15
 73
11
 74
0
 42
0.0000001
 43
0.0000001
 44
0.0000000001
 40
0.0
 40
0.0
 40
0.0
 40
0.0
 40
0.0827215329
 40
0.1852468028
 40
0.3066049585
 40
0.4425044153
 40
0.5868170168
 40
0.7325155364
 40
0.8724331832
 40
1.0
 40
1.0
 40
1.0
 40
1.0
 10
309.7301920774
 20
280.7953128854
 30
0.0
 10
310.2339005792
 20
280.9052405105
 30
0.0
 10
311.3013909885
 20
281.4135914533
 30
0.0
 10
312.7597785237
 20
282.664372167
 30
0.0
 10
314.1851155959
 20
284.4080698611
 30
0.0
 10
315.4926574244
 20
286.5493598017
 30
0.0
 10
316.6076748986
 20
288.9643459124
 30
0.0
 10
317.4624423027
 20
291.5096991574
 30
0.0
 10
318.0061704891
 20
294.0321499015
 30
0.0
 10
318.1496013093
 20
295.7001298156
 30
0.0
 10
318.1496013093
 20
296.495193306
 30
0.0
  0
SPLINE
  5
358
100
AcDbEntity
  8
0
100
AcDbSpline
 62
7
  6
CONTINUOUS
 70
0
 71
3
 72
12
 73
8
 74
0
 42
0.0000001
 43
0.0000001
 44
0.0000000001
 40
0.0
 40
0.0
 40
0.0
 40
0.0
 40
0.1114637147
 40
0.2254700657
 40
0.4663576171
 40
0.7280172703
 40
1.0
 40
1.0
 40
1.0
 40
1.0
 10
178.9749519729
 20
454.5092899491
 30
0.0
 10
178.9269678286
 20
454.7534822503
 30
0.0
 10
178.8966237677
 20
455.2630650078
 30
0.0
 10
179.1075556673
 20
456.2930493125
 30
0.0
 10
179.8854457318
 20
457.4913642049
 30
0.0
 10
181.354042091
 20
458.4726690339
 30
0.0
 10
182.5392730294
 20
458.7619069583
 30
0.0
 10
183.1452324371
 20
458.8014573148
 30
0.0
  0
SPLINE
  5
359
100
AcDbEntity
  8
0
100
AcDbSpline
 62
7
  6
CONTINUOUS
 70
0
 71
3
 72
15
 73
11
 74
0
 42
0.0000001
 43
0.0000001
 44
0.0000000001
 40
0.0
 40
0.0
 40
0.0
 40
0.0
 40
0.0827215329
 40
0.1852468028
 40
0.3066049585
 40
0.4425044153
 40
0.5868170168
 40
0.7325155364
 40
0.8724331832
 40
1.0
 40
1.0
 40
1.0
 40
1.0
 10
309.7301920774
 20
339.6297455655
 30
0.0
 10
310.2339005792
 20
339.7396731906
 30
0.0
 10
311.3013909885
 20
340.2480241334
 30
0.0
 10
312.7597785237
 20
341.4988048471
 30
0.0
 10
314.1851155959
 20
343.2425025412
 30
0.0
 10
315.4926574244
 20
345.3837924818
 30
0.0
 10
316.6076748986
 20
347.7987785925
 30
0.0
 10
317.4624423027
 20
350.3441318375
 30
0.0
 10
318.0061704891
 20
352.8665825817
 30
0.0
 10
318.1496013093
 20
354.5345624957
 30
0.0
 10
318.1496013093
 20
355.3296259861
 30
0.0
  0
SPLINE
  5
35A
100
AcDbEntity
  8
0
100
AcDbSpline
 62
7
  6
CONTINUOUS
 70
0
 71
3
 72
11
 73
7
 74
0
 42
0.0000001
 43
0.0000001
 44
0.0000000001
 40
0.0
 40
0.0
 40
0.0
 40
0.0
 40
0.2270945955
 40
0.4718392431
 40
0.732518611
 40
1.0
 40
1.0
 40
1.0
 40
1.0
 10
178.0815634271
 20
269.453032012
 30
0.0
 10
178.0307906341
 20
269.0149999088
 30
0.0
 10
177.7122949424
 20
268.1223105175
 30
0.0
 10
176.7433951519
 20
267.0422660524
 30
0.0
 10
175.4158086371
 20
266.2935036625
 30
0.0
 10
174.3961887656
 20
266.0717228516
 30
0.0
 10
173.8779049427
 20
266.0378949917
 30
0.0
  0
SPLINE
  5
35B
100
AcDbEntity
  8
0
100
AcDbSpline
 62
7
  6
CONTINUOUS
 70
0
 71
3
 72
9
 73
5
 74
0
 42
0.0000001
 43
0.0000001
 44
0.0000000001
 40
0.0
 40
0.0
 40
0.0
 40
0.0
 40
0.4782584537
 40
1.0
 40
1.0
 40
1.0
 40
1.0
 10
259.9904436089
 20
87.3898991257
 30
0.0
 10
260.391017751
 20
86.8508761429
 30
0.0
 10
261.0142282312
 20
85.5555947222
 30
0.0
 10
261.1894368824
 20
84.1404876779
 30
0.0
 10
261.1894368824
 20
83.4078594533
 30
0.0
  0
SPLINE
  5
35C
100
AcDbEntity
  8
0
100
AcDbSpline
 62
7
  6
CONTINUOUS
 70
0
 71
3
 72
11
 73
7
 74
0
 42
0.0000001
 43
0.0000001
 44
0.0000000001
 40
0.0
 40
0.0
 40
0.0
 40
0.0
 40
0.2270945955
 40
0.4718392431
 40
0.732518611
 40
1.0
 40
1.0
 40
1.0
 40
1.0
 10
178.0815634271
 20
92.9497339716
 30
0.0
 10
178.0307906341
 20
92.5117018684
 30
0.0
 10
177.7122949424
 20
91.6190124771
 30
0.0
 10
176.7433951519
 20
90.538968012
 30
0.0
 10
175.4158086371
 20
89.7902056221
 30
0.0
 10
174.3961887656
 20
89.5684248112
 30
0.0
 10
173.8779049427
 20
89.5345969513
 30
0.0
  0
SPLINE
  5
35D
100
AcDbEntity
  8
0
100
AcDbSpline
 62
7
  6
CONTINUOUS
 70
0
 71
3
 72
9
 73
5
 74
0
 42
0.0000001
 43
0.0000001
 44
0.0000000001
 40
0.0
 40
0.0
 40
0.0
 40
0.0
 40
0.4782584537
 40
1.0
 40
1.0
 40
1.0
 40
1.0
 10
259.9904436089
 20
146.2243318059
 30
0.0
 10
260.391017751
 20
145.685308823
 30
0.0
 10
261.0142282312
 20
144.3900274023
 30
0.0
 10
261.1894368824
 20
142.974920358
 30
0.0
 10
261.1894368824
 20
142.2422921334
 30
0.0
  0
SPLINE
  5
35E
100
AcDbEntity
  8
0
100
AcDbSpline
 62
7
  6
CONTINUOUS
 70
0
 71
3
 72
9
 73
5
 74
0
 42
0.0000001
 43
0.0000001
 44
0.0000000001
 40
0.0
 40
0.0
 40
0.0
 40
0.0
 40
0.4782584537
 40
1.0
 40
1.0
 40
1.0
 40
1.0
 10
259.9904436089
 20
322.7276298462
 30
0.0
 10
260.391017751
 20
322.1886068634
 30
0.0
 10
261.0142282312
 20
320.8933254427
 30
0.0
 10
261.1894368824
 20
319.4782183984
 30
0.0
 10
261.1894368824
 20
318.7455901738
 30
0.0
  0
SPLINE
  5
35F
100
AcDbEntity
  8
0
100
AcDbSpline
 62
7
  6
CONTINUOUS
 70
0
 71
3
 72
9
 73
5
 74
0
 42
0.0000001
 43
0.0000001
 44
0.0000000001
 40
0.0
 40
0.0
 40
0.0
 40
0.0
 40
0.4782584537
 40
1.0
 40
1.0
 40
1.0
 40
1.0
 10
259.9904436089
 20
205.058764486
 30
0.0
 10
260.391017751
 20
204.5197415032
 30
0.0
 10
261.0142282312
 20
203.2244600825
 30
0.0
 10
261.1894368824
 20
201.8093530382
 30
0.0
 10
261.1894368824
 20
201.0767248136
 30
0.0
  0
SPLINE
  5
360
100
AcDbEntity
  8
0
100
AcDbSpline
 62
7
  6
CONTINUOUS
 70
0
 71
3
 72
9
 73
5
 74
0
 42
0.0000001
 43
0.0000001
 44
0.0000000001
 40
0.0
 40
0.0
 40
0.0
 40
0.0
 40
0.4782584537
 40
1.0
 40
1.0
 40
1.0
 40
1.0
 10
259.9904436089
 20
263.8931971661
 30
0.0
 10
260.391017751
 20
263.3541741833
 30
0.0
 10
261.0142282312
 20
262.0588927626
 30
0.0
 10
261.1894368824
 20
260.6437857183
 30
0.0
 10
261.1894368824
 20
259.9111574937
 30
0.0
  0
SPLINE
  5
361
100
AcDbEntity
  8
0
100
AcDbSpline
 62
7
  6
CONTINUOUS
 70
0
 71
3
 72
9
 73
5
 74
0
 42
0.0000001
 43
0.0000001
 44
0.0000000001
 40
0.0
 40
0.0
 40
0.0
 40
0.0
 40
0.4851826184
 40
1.0
 40
1.0
 40
1.0
 40
1.0
 10
259.9874643267
 20
483.8778268358
 30
0.0
 10
259.4929037052
 20
483.3030360567
 30
0.0
 10
258.703153284
 20
481.904256812
 30
0.0
 10
258.471216942
 20
480.3252909213
 30
0.0
 10
258.471216942
 20
479.5207052101
 30
0.0
  0
SPLINE
  5
362
100
AcDbEntity
  8
0
100
AcDbSpline
 62
7
  6
CONTINUOUS
 70
0
 71
3
 72
11
 73
7
 74
0
 42
0.0000001
 43
0.0000001
 44
0.0000000001
 40
0.0
 40
0.0
 40
0.0
 40
0.0
 40
0.2332974396
 40
0.4754931924
 40
0.7309243879
 40
1.0
 40
1.0
 40
1.0
 40
1.0
 10
174.9365968327
 20
247.0091141022
 30
0.0
 10
175.1364618515
 20
246.2464397791
 30
0.0
 10
175.8061222458
 20
244.7498311142
 30
0.0
 10
177.4837127839
 20
242.8892688021
 30
0.0
 10
179.7088375991
 20
241.5044456716
 30
0.0
 10
181.4179882178
 20
240.9650768726
 30
0.0
 10
182.3102062589
 20
240.7894469562
 30
0.0
  0
LINE
  5
363
100
AcDbEntity
  8
0
100
AcDbLine
 62
9
  6
CONTINUOUS
 10
159.9272338712
 20
327.4346473255
 11
160.2647647313
 21
325.7163304442
  0
LINE
  5
364
100
AcDbEntity
  8
SURFACES
100
AcDbLine
 62
9
  6
CONTINUOUS
 10
217.5812475133
 20
329.8221922399
 11
215.9504288937
 21
331.2736610171
  0
LINE
  5
365
100
AcDbEntity
  8
SURFACES
100
AcDbLine
 62
9
  6
CONTINUOUS
 10
291.3681799931
 20
357.7295596159
 11
288.8501588196
 21
358.66961617
  0
LINE
  5
366
100
AcDbEntity
  8
SURFACES
100
AcDbLine
 62
9
  6
CONTINUOUS
 10
338.9335894418
 20
400.7308932796
 11
335.9526377618
 21
400.925456975
  0
SPLINE
  5
367
100
AcDbEntity
  8
0
100
AcDbSpline
 62
7
  6
CONTINUOUS
 70
0
 71
3
 72
18
 73
14
 74
0
 42
0.0000001
 43
0.0000001
 44
0.0000000001
 40
0.0
 40
0.0
 40
0.0
 40
0.0
 40
0.0558036403
 40
0.1125696229
 40
0.1710841366
 40
0.2318390776
 40
0.3598643911
 40
0.4948070992
 40
0.6310939063
 40
0.762587629
 40
0.8852275775
 40
0.9434360545
 40
1.0
 40
1.0
 40
1.0
 40
1.0
 10
174.8356555669
 20
365.1187051191
 30
0.0
 10
174.9427534772
 20
364.5735633654
 30
0.0
 10
175.2876675457
 20
363.4950072021
 30
0.0
 10
176.1656539504
 20
362.0199611047
 30
0.0
 10
177.3723755596
 20
360.7310464999
 30
0.0
 10
179.3903706746
 20
359.2965713971
 30
0.0
 10
182.4989078343
 20
358.207325051
 30
0.0
 10
186.5324802904
 20
358.1356028039
 30
0.0
 10
190.4451172499
 20
359.2575718706
 30
0.0
 10
193.7414119432
 20
361.4366374186
 30
0.0
 10
195.6507882077
 20
363.9941861247
 30
0.0
 10
196.4271659839
 20
366.2428998521
 30
0.0
 10
196.5595149971
 20
367.3893474412
 30
0.0
 10
196.5595149971
 20
367.9524791062
 30
0.0
  0
LINE
  5
368
100
AcDbEntity
  8
SURFACES
100
AcDbLine
 62
9
  6
CONTINUOUS
 10
347.9451709081
 20
451.5208450073
 11
345.2576287135
 21
450.7524114444
  0
LINE
  5
369
100
AcDbEntity
  8
SURFACES
100
AcDbLine
 62
7
  6
CONTINUOUS
 10
345.2576287135
 20
450.7524114444
 11
307.6196589615
 21
494.4917081704
  0
LINE
  5
36A
100
AcDbEntity
  8
SURFACES
100
AcDbLine
 62
9
  6
CONTINUOUS
 10
307.5982877687
 20
496.8216469515
 11
306.2652022678
 21
495.2724607795
  0
LINE
  5
36B
100
AcDbEntity
  8
SURFACES
100
AcDbLine
 62
7
  6
CONTINUOUS
 10
306.2652022678
 20
495.2724607795
 11
230.3858743762
 21
516.9682028596
  0
SPLINE
  5
36C
100
AcDbEntity
  8
0
100
AcDbSpline
 62
7
  6
CONTINUOUS
 70
0
 71
3
 72
13
 73
9
 74
0
 42
0.0000001
 43
0.0000001
 44
0.0000000001
 40
0.0
 40
0.0
 40
0.0
 40
0.0
 40
0.0822688704
 40
0.1709855499
 40
0.271082211
 40
0.3855592229
 40
0.6617846367
 40
1.0
 40
1.0
 40
1.0
 40
1.0
 10
323.4145626252
 20
394.9465572341
 30
0.0
 10
323.2685246922
 20
394.9047850706
 30
0.0
 10
322.9774653536
 20
394.76798103
 30
0.0
 10
322.6016221749
 20
394.4291692063
 30
0.0
 10
322.2811194957
 20
393.965243028
 30
0.0
 10
321.9050816152
 20
393.1369169917
 30
0.0
 10
321.6127978097
 20
391.8108086201
 30
0.0
 10
321.5506636678
 20
390.6752139223
 30
0.0
 10
321.5506636678
 20
390.0507600846
 30
0.0
  0
LINE
  5
36D
100
AcDbEntity
  8
0
100
AcDbLine
 62
9
  6
CONTINUOUS
 10
174.0027467188
 20
515.306650577
 11
174.3402775788
 21
513.5883336957
  0
LINE
  5
36E
100
AcDbEntity
  8
SURFACES
100
AcDbLine
 62
9
  6
CONTINUOUS
 10
228.3777271552
 20
518.8556504502
 11
228.7152580153
 21
517.1373335689
  0
LINE
  5
36F
100
AcDbEntity
  8
0
100
AcDbLine
 62
7
  6
CONTINUOUS
 10
228.7152580153
 20
517.1373335689
 11
174.3402775788
 21
513.5883336957
  0
SPLINE
  5
370
100
AcDbEntity
  8
0
100
AcDbSpline
 62
7
  6
CONTINUOUS
 70
0
 71
3
 72
13
 73
9
 74
0
 42
0.0000001
 43
0.0000001
 44
0.0000000001
 40
0.0
 40
0.0
 40
0.0
 40
0.0
 40
0.0822688704
 40
0.1709855499
 40
0.271082211
 40
0.3855592229
 40
0.6617846367
 40
1.0
 40
1.0
 40
1.0
 40
1.0
 10
323.4145626252
 20
453.7809899142
 30
0.0
 10
323.2685246922
 20
453.7392177507
 30
0.0
 10
322.9774653536
 20
453.6024137102
 30
0.0
 10
322.6016221749
 20
453.2636018864
 30
0.0
 10
322.2811194957
 20
452.7996757081
 30
0.0
 10
321.9050816152
 20
451.9713496718
 30
0.0
 10
321.6127978097
 20
450.6452413003
 30
0.0
 10
321.5506636678
 20
449.5096466024
 30
0.0
 10
321.5506636678
 20
448.8851927647
 30
0.0
  0
LINE
  5
371
100
AcDbEntity
  8
0
100
AcDbLine
 62
9
  6
CONTINUOUS
 10
187.775954377
 20
453.898315386
 11
188.1134852371
 21
452.1799985047
  0
LINE
  5
372
100
AcDbEntity
  8
0
100
AcDbLine
 62
9
  6
CONTINUOUS
 10
182.807701577
 20
453.5740425602
 11
183.1452324371
 21
451.8557256789
  0
LINE
  5
373
100
AcDbEntity
  8
0
100
AcDbLine
 62
9
  6
CONTINUOUS
 10
173.8779049427
 20
266.0378949917
 11
174.2154358028
 21
264.3195781104
  0
LINE
  5
374
100
AcDbEntity
  8
0
100
AcDbLine
 62
9
  6
CONTINUOUS
 10
168.9096521427
 20
265.7136221659
 11
169.2471830028
 21
263.9953052846
  0
SPLINE
  5
375
100
AcDbEntity
  8
0
100
AcDbSpline
 62
7
  6
CONTINUOUS
 70
0
 71
3
 72
18
 73
14
 74
0
 42
0.0000001
 43
0.0000001
 44
0.0000000001
 40
0.0
 40
0.0
 40
0.0
 40
0.0
 40
0.0558036403
 40
0.1125696229
 40
0.1710841366
 40
0.2318390776
 40
0.3598643911
 40
0.4948070992
 40
0.6310939063
 40
0.762587629
 40
0.8852275775
 40
0.9434360545
 40
1.0
 40
1.0
 40
1.0
 40
1.0
 10
174.8356555669
 20
482.7875704793
 30
0.0
 10
174.9427534772
 20
482.2424287257
 30
0.0
 10
175.2876675457
 20
481.1638725623
 30
0.0
 10
176.1656539504
 20
479.688826465
 30
0.0
 10
177.3723755596
 20
478.3999118601
 30
0.0
 10
179.3903706746
 20
476.9654367573
 30
0.0
 10
182.4989078343
 20
475.8761904113
 30
0.0
 10
186.5324802904
 20
475.8044681642
 30
0.0
 10
190.4451172499
 20
476.9264372308
 30
0.0
 10
193.7414119432
 20
479.1055027788
 30
0.0
 10
195.6507882077
 20
481.663051485
 30
0.0
 10
196.4271659839
 20
483.9117652124
 30
0.0
 10
196.5595149971
 20
485.0582128015
 30
0.0
 10
196.5595149971
 20
485.6213444665
 30
0.0
  0
LINE
  5
376
100
AcDbEntity
  8
0
100
AcDbLine
 62
9
  6
CONTINUOUS
 10
173.8779049427
 20
89.5345969513
 11
174.2154358028
 21
87.81628007
  0
LINE
  5
377
100
AcDbEntity
  8
0
100
AcDbLine
 62
9
  6
CONTINUOUS
 10
168.9096521427
 20
89.2103241255
 11
169.2471830028
 21
87.4920072442
  0
LINE
  5
378
100
AcDbEntity
  8
0
100
AcDbLine
 62
9
  6
CONTINUOUS
 10
152.9716799512
 20
321.2606510811
 11
153.3092108113
 21
319.5423341998
  0
LINE
  5
379
100
AcDbEntity
  8
0
100
AcDbLine
 62
9
  6
CONTINUOUS
 10
153.3092108113
 20
36.8101993759
 11
153.1442272676
 21
37.6501048242
  0
LINE
  5
37A
100
AcDbEntity
  8
0
100
AcDbLine
 62
9
  6
CONTINUOUS
 10
153.1442272676
 20
37.6501048242
 11
152.9716799512
 21
38.5285162572
  0
LINE
  5
37B
100
AcDbEntity
  8
0
100
AcDbLine
 62
9
  6
CONTINUOUS
 10
167.0471927988
 20
509.1326543326
 11
167.3847236588
 21
507.4143374513
  0
LINE
  5
37C
100
AcDbEntity
  8
SURFACES
100
AcDbLine
 62
9
  6
CONTINUOUS
 10
307.6196589615
 20
494.4917081704
 11
307.6196589615
 21
375.3749340344
  0
LINE
  5
37D
100
AcDbEntity
  8
SURFACES
100
AcDbLine
 62
9
  6
CONTINUOUS
 10
345.2576287135
 20
450.7524114444
 11
345.2576287135
 21
448.2957123306
  0
SPLINE
  5
37E
100
AcDbEntity
  8
0
100
AcDbSpline
 62
7
  6
CONTINUOUS
 70
0
 71
3
 72
18
 73
14
 74
0
 42
0.0000001
 43
0.0000001
 44
0.0000000001
 40
0.0
 40
0.0
 40
0.0
 40
0.0
 40
0.1404372681
 40
0.2952288714
 40
0.4541431988
 40
0.6064868117
 40
0.742311875
 40
0.8015117351
 40
0.8539276834
 40
0.8992712522
 40
0.937796346
 40
0.9706035676
 40
1.0
 40
1.0
 40
1.0
 40
1.0
 10
321.5506636678
 20
448.8851927647
 30
0.0
 10
321.5506636678
 20
447.982128029
 30
0.0
 10
321.7005776895
 20
446.0831086503
 30
0.0
 10
322.2532470389
 20
443.211033402
 30
0.0
 10
323.1111966045
 20
440.3340097865
 30
0.0
 10
324.2090838106
 20
437.6719155862
 30
0.0
 10
325.2979050446
 20
435.7121141455
 30
0.0
 10
326.2390917701
 20
434.4266476529
 30
0.0
 10
326.9162618615
 20
433.6752659884
 30
0.0
 10
327.585578049
 20
433.1044585058
 30
0.0
 10
328.2387978093
 20
432.7243358285
 30
0.0
 10
328.8709593692
 20
432.5455217763
 30
0.0
 10
329.2809834806
 20
432.5767123178
 30
0.0
 10
329.4627250499
 20
432.6286970205
 30
0.0
  0
SPLINE
  5
37F
100
AcDbEntity
  8
0
100
AcDbSpline
 62
7
  6
CONTINUOUS
 70
0
 71
3
 72
18
 73
14
 74
0
 42
0.0000001
 43
0.0000001
 44
0.0000000001
 40
0.0
 40
0.0
 40
0.0
 40
0.0
 40
0.0558036403
 40
0.1125696229
 40
0.1710841366
 40
0.2318390776
 40
0.3598643911
 40
0.4948070992
 40
0.6310939063
 40
0.762587629
 40
0.8852275775
 40
0.9434360545
 40
1.0
 40
1.0
 40
1.0
 40
1.0
 10
174.8356555669
 20
423.9531377992
 30
0.0
 10
174.9427534772
 20
423.4079960456
 30
0.0
 10
175.2876675457
 20
422.3294398822
 30
0.0
 10
176.1656539504
 20
420.8543937848
 30
0.0
 10
177.3723755596
 20
419.56547918
 30
0.0
 10
179.3903706746
 20
418.1310040772
 30
0.0
 10
182.4989078343
 20
417.0417577311
 30
0.0
 10
186.5324802904
 20
416.9700354841
 30
0.0
 10
190.4451172499
 20
418.0920045507
 30
0.0
 10
193.7414119432
 20
420.2710700987
 30
0.0
 10
195.6507882077
 20
422.8286188049
 30
0.0
 10
196.4271659839
 20
425.0773325322
 30
0.0
 10
196.5595149971
 20
426.2237801213
 30
0.0
 10
196.5595149971
 20
426.7869117863
 30
0.0
  0
SPLINE
  5
380
100
AcDbEntity
  8
0
100
AcDbSpline
 62
7
  6
CONTINUOUS
 70
0
 71
3
 72
9
 73
5
 74
0
 42
0.0000001
 43
0.0000001
 44
0.0000000001
 40
0.0
 40
0.0
 40
0.0
 40
0.0
 40
0.2388456832
 40
1.0
 40
1.0
 40
1.0
 40
1.0
 10
321.5506636678
 20
390.0507600846
 30
0.0
 10
321.5506636678
 20
389.8782056281
 30
0.0
 10
321.5620079021
 20
389.1557677949
 30
0.0
 10
321.6156707155
 20
388.4342532591
 30
0.0
 10
321.675456481
 20
387.8876157386
 30
0.0
  0
SPLINE
  5
381
100
AcDbEntity
  8
SURFACES
100
AcDbSpline
 62
7
  6
CONTINUOUS
 70
0
 71
3
 72
9
 73
5
 74
0
 42
0.0000001
 43
0.0000001
 44
0.0000000001
 40
0.0
 40
0.0
 40
0.0
 40
0.0
 40
0.2425578068
 40
1.0
 40
1.0
 40
1.0
 40
1.0
 10
230.3858743762
 20
516.9682028596
 30
0.0
 10
230.2549823532
 20
517.0056280668
 30
0.0
 10
229.7080800131
 20
517.1336995656
 30
0.0
 10
229.1394752593
 20
517.1650217985
 30
0.0
 10
228.7152580153
 20
517.1373335689
 30
0.0
  0
SPLINE
  5
382
100
AcDbEntity
  8
SURFACES
100
AcDbSpline
 62
7
  6
CONTINUOUS
 70
0
 71
3
 72
9
 73
5
 74
0
 42
0.0000001
 43
0.0000001
 44
0.0000000001
 40
0.0
 40
0.0
 40
0.0
 40
0.0
 40
0.4597394102
 40
1.0
 40
1.0
 40
1.0
 40
1.0
 10
307.6196589615
 20
494.4917081704
 30
0.0
 10
307.4618153218
 20
494.6751391536
 30
0.0
 10
307.0325273715
 20
494.9996566108
 30
0.0
 10
306.5386244889
 20
495.1942827282
 30
0.0
 10
306.2652022678
 20
495.2724607795
 30
0.0
  0
LINE
  5
383
100
AcDbEntity
  8
SURFACES
100
AcDbLine
 62
9
  6
CONTINUOUS
 10
230.3858743762
 20
516.9682028596
 11
230.3858743762
 21
336.6628671448
  0
LINE
  5
384
100
AcDbEntity
  8
SURFACES
100
AcDbLine
 62
9
  6
CONTINUOUS
 10
231.7189598771
 20
518.5173890316
 11
230.3858743762
 21
516.9682028596
  0
LINE
  5
385
100
AcDbEntity
  8
SURFACES
100
AcDbLine
 62
9
  6
CONTINUOUS
 10
306.2652022678
 20
495.2724607795
 11
306.2652022678
 21
374.1694341846
  0
LINE
  5
386
100
AcDbEntity
  8
SURFACES
100
AcDbLine
 62
9
  6
CONTINUOUS
 10
310.3072011561
 20
495.2601417333
 11
307.6196589615
 21
494.4917081704
  0
LINE
  5
387
100
AcDbEntity
  8
SURFACES
100
AcDbLine
 62
9
  6
CONTINUOUS
 10
348.531989879
 20
449.5948504906
 11
345.551038199
 21
449.7894141861
  0
LINE
  5
388
100
AcDbEntity
  8
SURFACES
100
AcDbLine
 62
9
  6
CONTINUOUS
 10
338.0077284287
 20
399.2399075622
 11
335.4897072553
 21
400.1799641163
  0
SPLINE
  5
389
100
AcDbEntity
  8
0
100
AcDbSpline
 62
7
  6
CONTINUOUS
 70
0
 71
3
 72
16
 73
12
 74
0
 42
0.0000001
 43
0.0000001
 44
0.0000000001
 40
0.0
 40
0.0
 40
0.0
 40
0.0
 40
0.1199576343
 40
0.251093735
 40
0.3892989211
 40
0.528357277
 40
0.6618161071
 40
0.7848432028
 40
0.8961316525
 40
0.9486224167
 40
1.0
 40
1.0
 40
1.0
 40
1.0
 10
258.471216942
 20
479.5207052101
 30
0.0
 10
258.471216942
 20
478.5086212186
 30
0.0
 10
258.8654580105
 20
476.3831776259
 30
0.0
 10
260.3675381272
 20
473.423593465
 30
0.0
 10
262.6464956978
 20
470.795534201
 30
0.0
 10
265.4826981889
 20
468.7503770833
 30
0.0
 10
268.6093062241
 20
467.484369003
 30
0.0
 10
271.7359229668
 20
467.126396497
 30
0.0
 10
274.1583252601
 20
467.6698781489
 30
0.0
 10
275.7329307545
 20
468.5973259171
 30
0.0
 10
276.3808916741
 20
469.1998190889
 30
0.0
 10
276.6636123173
 20
469.5284041232
 30
0.0
  0
LINE
  5
38A
100
AcDbEntity
  8
SURFACES
100
AcDbLine
 62
9
  6
CONTINUOUS
 10
289.5937748853
 20
356.7067351698
 11
287.9629562657
 21
358.158203947
  0
SPLINE
  5
38B
100
AcDbEntity
  8
0
100
AcDbSpline
 62
7
  6
CONTINUOUS
 70
0
 71
3
 72
9
 73
5
 74
0
 42
0.0000001
 43
0.0000001
 44
0.0000000001
 40
0.0
 40
0.0
 40
0.0
 40
0.0
 40
0.4851826184
 40
1.0
 40
1.0
 40
1.0
 40
1.0
 10
259.9874643267
 20
366.2089614755
 30
0.0
 10
259.4929037052
 20
365.6341706965
 30
0.0
 10
258.703153284
 20
364.2353914517
 30
0.0
 10
258.471216942
 20
362.656425561
 30
0.0
 10
258.471216942
 20
361.8518398498
 30
0.0
  0
LINE
  5
38C
100
AcDbEntity
  8
SURFACES
100
AcDbLine
 62
9
  6
CONTINUOUS
 10
214.9946719943
 20
329.2884960317
 11
214.6571411342
 21
331.006812913
  0
SPLINE
  5
38D
100
AcDbEntity
  8
0
100
AcDbSpline
 62
7
  6
CONTINUOUS
 70
0
 71
3
 72
16
 73
12
 74
0
 42
0.0000001
 43
0.0000001
 44
0.0000000001
 40
0.0
 40
0.0
 40
0.0
 40
0.0
 40
0.1199576343
 40
0.251093735
 40
0.3892989211
 40
0.528357277
 40
0.6618161071
 40
0.7848432028
 40
0.8961316525
 40
0.9486224167
 40
1.0
 40
1.0
 40
1.0
 40
1.0
 10
258.471216942
 20
420.68627253
 30
0.0
 10
258.471216942
 20
419.6741885384
 30
0.0
 10
258.8654580105
 20
417.5487449458
 30
0.0
 10
260.3675381272
 20
414.5891607849
 30
0.0
 10
262.6464956978
 20
411.9611015209
 30
0.0
 10
265.4826981889
 20
409.9159444032
 30
0.0
 10
268.6093062241
 20
408.6499363229
 30
0.0
 10
271.7359229668
 20
408.2919638168
 30
0.0
 10
274.1583252601
 20
408.8354454688
 30
0.0
 10
275.7329307545
 20
409.762893237
 30
0.0
 10
276.3808916741
 20
410.3653864088
 30
0.0
 10
276.6636123173
 20
410.6939714431
 30
0.0
  0
SPLINE
  5
38E
100
AcDbEntity
  8
0
100
AcDbSpline
 62
7
  6
CONTINUOUS
 70
0
 71
3
 72
11
 73
7
 74
0
 42
0.0000001
 43
0.0000001
 44
0.0000000001
 40
0.0
 40
0.0
 40
0.0
 40
0.0
 40
0.2332974396
 40
0.4754931924
 40
0.7309243879
 40
1.0
 40
1.0
 40
1.0
 40
1.0
 10
174.9365968327
 20
305.8435467823
 30
0.0
 10
175.1364618515
 20
305.0808724593
 30
0.0
 10
175.8061222458
 20
303.5842637943
 30
0.0
 10
177.4837127839
 20
301.7237014822
 30
0.0
 10
179.7088375991
 20
300.3388783517
 30
0.0
 10
181.4179882178
 20
299.7995095527
 30
0.0
 10
182.3102062589
 20
299.6238796363
 30
0.0
  0
SPLINE
  5
38F
100
AcDbEntity
  8
0
100
AcDbSpline
 62
7
  6
CONTINUOUS
 70
0
 71
3
 72
12
 73
8
 74
0
 42
0.0000001
 43
0.0000001
 44
0.0000000001
 40
0.0
 40
0.0
 40
0.0
 40
0.0
 40
0.22764021
 40
0.4782944868
 40
0.609289644
 40
0.7413473246
 40
1.0
 40
1.0
 40
1.0
 40
1.0
 10
258.471216942
 20
361.8518398498
 30
0.0
 10
258.471216942
 20
360.699317429
 30
0.0
 10
258.983947518
 20
358.2701990864
 30
0.0
 10
260.547035813
 20
355.5627771256
 30
0.0
 10
262.2735218127
 20
353.6082681736
 30
0.0
 10
264.2737469732
 20
351.8755427867
 30
0.0
 10
266.0222967724
 20
350.881601179
 30
0.0
 10
267.2437015108
 20
350.4093147065
 30
0.0
  0
SPLINE
  5
390
100
AcDbEntity
  8
0
100
AcDbSpline
 62
7
  6
CONTINUOUS
 70
0
 71
3
 72
12
 73
8
 74
0
 42
0.0000001
 43
0.0000001
 44
0.0000000001
 40
0.0
 40
0.0
 40
0.0
 40
0.0
 40
0.1114637147
 40
0.2254700657
 40
0.4663576171
 40
0.7280172703
 40
1.0
 40
1.0
 40
1.0
 40
1.0
 10
192.2837657013
 20
456.4721658703
 30
0.0
 10
192.3317498456
 20
456.2279735692
 30
0.0
 10
192.3620939065
 20
455.7183908117
 30
0.0
 10
192.1511620069
 20
454.688406507
 30
0.0
 10
191.3732719424
 20
453.4900916145
 30
0.0
 10
189.9046755832
 20
452.5087867856
 30
0.0
 10
188.7194446447
 20
452.2195488612
 30
0.0
 10
188.1134852371
 20
452.1799985047
 30
0.0
  0
LINE
  5
391
100
AcDbEntity
  8
0
100
AcDbLine
 62
7
  6
CONTINUOUS
 10
167.3847236588
 20
231.320440479
 11
167.3847236588
 21
246.1756908141
  0
LINE
  5
392
100
AcDbEntity
  8
0
100
AcDbLine
 62
7
  6
CONTINUOUS
 10
167.3847236588
 20
265.8575720248
 11
167.3847236588
 21
270.4570733024
  0
LINE
  5
393
100
AcDbEntity
  8
0
100
AcDbLine
 62
7
  6
CONTINUOUS
 10
167.3847236588
 20
290.1548731591
 11
167.3847236588
 21
305.0101234942
  0
LINE
  5
394
100
AcDbEntity
  8
0
100
AcDbLine
 62
7
  6
CONTINUOUS
 10
167.3847236588
 20
327.9213901271
 11
167.3847236588
 21
507.4143374513
  0
SPLINE
  5
395
100
AcDbEntity
  8
0
100
AcDbSpline
 62
7
  6
CONTINUOUS
 70
0
 71
3
 72
12
 73
8
 74
0
 42
0.0000001
 43
0.0000001
 44
0.0000000001
 40
0.0
 40
0.0
 40
0.0
 40
0.0
 40
0.2690720779
 40
0.5300894925
 40
0.7733049584
 40
0.8883956631
 40
1.0
 40
1.0
 40
1.0
 40
1.0
 10
174.3402775788
 20
513.5883336957
 30
0.0
 10
173.4320147481
 20
513.5290523011
 30
0.0
 10
171.6488246742
 20
513.1228455172
 30
0.0
 10
169.368915842
 20
511.7518580084
 30
0.0
 10
168.0266833585
 20
510.0656433844
 30
0.0
 10
167.4784242972
 20
508.5615062697
 30
0.0
 10
167.3847236588
 20
507.7918636297
 30
0.0
 10
167.3847236588
 20
507.4143374513
 30
0.0
  0
LINE
  5
396
100
AcDbEntity
  8
SURFACES
100
AcDbLine
 62
9
  6
CONTINUOUS
 10
228.7152580153
 20
517.1373335689
 11
228.7152580153
 21
336.0391734777
  0
SPLINE
  5
397
100
AcDbEntity
  8
SURFACES
100
AcDbSpline
 62
7
  6
CONTINUOUS
 70
0
 71
3
 72
9
 73
5
 74
0
 42
0.0000001
 43
0.0000001
 44
0.0000000001
 40
0.0
 40
0.0
 40
0.0
 40
0.0
 40
0.4773764504
 40
1.0
 40
1.0
 40
1.0
 40
1.0
 10
345.5700824503
 20
449.98380498
 30
0.0
 10
345.5701168916
 20
450.1179942957
 30
0.0
 10
345.5104346596
 20
450.4012285824
 30
0.0
 10
345.353451055
 20
450.6410557615
 30
0.0
 10
345.2576287135
 20
450.7524114444
 30
0.0
  0
LINE
  5
398
100
AcDbEntity
  8
0
100
AcDbLine
 62
7
  6
CONTINUOUS
 10
188.1134852371
 20
452.1799985047
 11
183.1452324371
 21
451.8557256789
  0
SPLINE
  5
399
100
AcDbEntity
  8
0
100
AcDbSpline
 62
7
  6
CONTINUOUS
 70
0
 71
3
 72
9
 73
5
 74
0
 42
0.0000001
 43
0.0000001
 44
0.0000000001
 40
0.0
 40
0.0
 40
0.0
 40
0.0
 40
0.4851826184
 40
1.0
 40
1.0
 40
1.0
 40
1.0
 10
259.9874643267
 20
425.0433941556
 30
0.0
 10
259.4929037052
 20
424.4686033766
 30
0.0
 10
258.703153284
 20
423.0698241318
 30
0.0
 10
258.471216942
 20
421.4908582411
 30
0.0
 10
258.471216942
 20
420.68627253
 30
0.0
  0
SPLINE
  5
39A
100
AcDbEntity
  8
0
100
AcDbSpline
 62
7
  6
CONTINUOUS
 70
0
 71
3
 72
11
 73
7
 74
0
 42
0.0000001
 43
0.0000001
 44
0.0000000001
 40
0.0
 40
0.0
 40
0.0
 40
0.0
 40
0.2731894807
 40
0.5317255877
 40
0.7721907297
 40
1.0
 40
1.0
 40
1.0
 40
1.0
 10
183.1452324371
 20
451.8557256789
 30
0.0
 10
182.6578091168
 20
451.8239120527
 30
0.0
 10
181.6935864079
 20
451.8963446748
 30
0.0
 10
180.3905540742
 20
452.4217279847
 30
0.0
 10
179.4046858082
 20
453.3157441807
 30
0.0
 10
179.0534892358
 20
454.1096121963
 30
0.0
 10
178.9749519729
 20
454.5092899491
 30
0.0
  0
ARC
  5
39B
100
AcDbEntity
  8
0
100
AcDbCircle
 62
7
  6
CONTINUOUS
 10
189.2440559845
 20
485.6219709626
 40
7.3154590394
100
AcDbArc
 50
359.9950931879
 51
11.0837222388
  0
ARC
  5
39C
100
AcDbEntity
  8
0
100
AcDbCircle
 62
7
  6
CONTINUOUS
 10
189.2440559845
 20
426.7875382824
 40
7.3154590394
100
AcDbArc
 50
359.9950931879
 51
11.0837222388
  0
ARC
  5
39D
100
AcDbEntity
  8
0
100
AcDbCircle
 62
7
  6
CONTINUOUS
 10
189.2440559845
 20
367.9531056023
 40
7.3154590394
100
AcDbArc
 50
359.9950931879
 51
11.0837222388
  0
LINE
  5
39E
100
AcDbEntity
  8
SURFACES
100
AcDbLine
 62
3
  6
CONTINUOUS
 10
348.5700865189
 20
155.8118004679
 11
348.531989879
 21
155.42268709
  0
SPLINE
  5
39F
100
AcDbEntity
  8
0
100
AcDbSpline
 62
3
  6
CONTINUOUS
 70
0
 71
3
 72
12
 73
8
 74
0
 42
0.0000001
 43
0.0000001
 44
0.0000000001
 40
0.0
 40
0.0
 40
0.0
 40
0.0
 40
0.1116043369
 40
0.2266950416
 40
0.4699105075
 40
0.7309279221
 40
1.0
 40
1.0
 40
1.0
 40
1.0
 10
167.0471927988
 20
509.1326543326
 30
0.0
 10
167.0471927988
 20
509.510180511
 30
0.0
 10
167.1408934371
 20
510.279823151
 30
0.0
 10
167.6891524984
 20
511.7839602657
 30
0.0
 10
169.031384982
 20
513.4701748897
 30
0.0
 10
171.3112938141
 20
514.8411623985
 30
0.0
 10
173.094483888
 20
515.2473691824
 30
0.0
 10
174.0027467188
 20
515.306650577
 30
0.0
  0
LINE
  5
3A0
100
AcDbEntity
  8
0
100
AcDbLine
 62
3
  6
CONTINUOUS
 10
167.0471927988
 20
231.401413924
 11
167.0471927988
 21
246.0142575843
  0
LINE
  5
3A1
100
AcDbEntity
  8
0
100
AcDbLine
 62
3
  6
CONTINUOUS
 10
167.0471927988
 20
265.9544641158
 11
167.0471927988
 21
270.2834761012
  0
LINE
  5
3A2
100
AcDbEntity
  8
0
100
AcDbLine
 62
3
  6
CONTINUOUS
 10
167.0471927988
 20
290.2358466041
 11
167.0471927988
 21
304.8486902645
  0
LINE
  5
3A3
100
AcDbEntity
  8
0
100
AcDbLine
 62
3
  6
CONTINUOUS
 10
167.0471927988
 20
327.8993598299
 11
167.0471927988
 21
509.1326543326
  0
SPLINE
  5
3A4
100
AcDbEntity
  8
SURFACES
100
AcDbSpline
 62
3
  6
CONTINUOUS
 70
0
 71
3
 72
9
 73
5
 74
0
 42
0.0000001
 43
0.0000001
 44
0.0000000001
 40
0.0
 40
0.0
 40
0.0
 40
0.0
 40
0.4773801371
 40
1.0
 40
1.0
 40
1.0
 40
1.0
 10
348.5700863105
 20
449.9839638686
 30
0.0
 10
348.5700974413
 20
450.2522931418
 30
0.0
 10
348.4507013306
 20
450.8186298302
 30
0.0
 10
348.1367775075
 20
451.2981778985
 30
0.0
 10
347.9451709081
 20
451.5208450073
 30
0.0
  0
LINE
  5
3A5
100
AcDbEntity
  8
SURFACES
100
AcDbLine
 62
3
  6
CONTINUOUS
 10
348.570086519
 20
449.9839778815
 11
348.570086519
 21
449.5948504906
  0
LINE
  5
3A6
100
AcDbEntity
  8
SURFACES
100
AcDbLine
 62
3
  6
CONTINUOUS
 10
348.570086519
 20
449.5948504906
 11
348.570086519
 21
155.8118144809
  0
LINE
  5
3A7
100
AcDbEntity
  8
0
100
AcDbLine
 62
3
  6
CONTINUOUS
 10
187.775954377
 20
453.898315386
 11
182.807701577
 21
453.5740425602
  0
SPLINE
  5
3A8
100
AcDbEntity
  8
0
100
AcDbSpline
 62
3
  6
CONTINUOUS
 70
0
 71
3
 72
11
 73
7
 74
0
 42
0.0000001
 43
0.0000001
 44
0.0000000001
 40
0.0
 40
0.0
 40
0.0
 40
0.0
 40
0.2685095129
 40
0.5263681988
 40
0.7699439704
 40
1.0
 40
1.0
 40
1.0
 40
1.0
 10
182.807701577
 20
453.5740425602
 30
0.0
 10
182.4078939046
 20
453.5479475186
 30
0.0
 10
181.6146253022
 20
453.5878241394
 30
0.0
 10
180.5043287745
 20
453.9288338816
 30
0.0
 10
179.5736701585
 20
454.5270529273
 30
0.0
 10
179.1161046888
 20
455.0855304767
 30
0.0
 10
178.9483912738
 20
455.3850520667
 30
0.0
  0
ARC
  5
3A9
100
AcDbEntity
  8
0
100
AcDbCircle
 62
3
  6
CONTINUOUS
 10
188.8752041546
 20
487.3399625114
 40
7.3467799886
100
AcDbArc
 50
359.9976512971
 51
4.3596146078
  0
ARC
  5
3AA
100
AcDbEntity
  8
0
100
AcDbCircle
 62
3
  6
CONTINUOUS
 10
188.8752041546
 20
428.5055298312
 40
7.3467799886
100
AcDbArc
 50
359.9976512971
 51
4.3596146078
  0
ARC
  5
3AB
100
AcDbEntity
  8
0
100
AcDbCircle
 62
3
  6
CONTINUOUS
 10
188.8752041546
 20
369.6710971511
 40
7.3467799886
100
AcDbArc
 50
359.9976512971
 51
4.3596146078
  0
SPLINE
  5
3AC
100
AcDbEntity
  8
0
100
AcDbSpline
 62
3
  6
CONTINUOUS
 70
0
 71
3
 72
11
 73
7
 74
0
 42
0.0000001
 43
0.0000001
 44
0.0000000001
 40
0.0
 40
0.0
 40
0.0
 40
0.0
 40
0.2278076526
 40
0.4682734079
 40
0.7268092528
 40
1.0
 40
1.0
 40
1.0
 40
1.0
 10
153.3960642172
 20
35.9147464961
 30
0.0
 10
153.5254062211
 20
35.2564554031
 30
0.0
 10
154.1038531703
 20
33.9489067228
 30
0.0
 10
155.7276397082
 20
32.4764230023
 30
0.0
 10
157.8738070558
 20
31.6110592187
 30
0.0
 10
159.4619455086
 20
31.4917678465
 30
0.0
 10
160.2647647313
 20
31.5441670436
 30
0.0
  0
SPLINE
  5
3AD
100
AcDbEntity
  8
0
100
AcDbSpline
 62
3
  6
CONTINUOUS
 70
0
 71
3
 72
10
 73
6
 74
0
 42
0.0000001
 43
0.0000001
 44
0.0000000001
 40
0.0
 40
0.0
 40
0.0
 40
0.0
 40
0.2360347138
 40
0.4811083347
 40
1.0
 40
1.0
 40
1.0
 40
1.0
 10
175.3493416346
 20
246.9057240368
 30
0.0
 10
175.6571645903
 20
246.3714732114
 30
0.0
 10
176.4203655471
 20
245.3554690779
 30
0.0
 10
178.4248726615
 20
243.6565441113
 30
0.0
 10
180.3308039417
 20
242.8727517954
 30
0.0
 10
181.6532121208
 20
242.5751326514
 30
0.0
  0
SPLINE
  5
3AE
100
AcDbEntity
  8
0
100
AcDbSpline
 62
3
  6
CONTINUOUS
 70
0
 71
3
 72
16
 73
12
 74
0
 42
0.0000001
 43
0.0000001
 44
0.0000000001
 40
0.0
 40
0.0
 40
0.0
 40
0.0
 40
0.1185407332
 40
0.2477202945
 40
0.3154258302
 40
0.3842961412
 40
0.5223974536
 40
0.6563948222
 40
0.781481093
 40
0.895429323
 40
1.0
 40
1.0
 40
1.0
 40
1.0
 10
259.8043024429
 20
481.0698913821
 30
0.0
 10
259.8043024429
 20
480.1112410523
 30
0.0
 10
260.1571526747
 20
478.1018572806
 30
0.0
 10
261.2751804358
 20
475.7795093978
 30
0.0
 10
262.5322289693
 20
474.031326808
 30
0.0
 10
264.0298179393
 20
472.3850831765
 30
0.0
 10
266.2178544816
 20
470.6666547846
 30
0.0
 10
269.1485137851
 20
469.283156538
 30
0.0
 10
272.1459433995
 20
468.699660155
 30
0.0
 10
274.9573580645
 20
468.9867480259
 30
0.0
 10
276.5828874171
 20
469.8085994227
 30
0.0
 10
277.2392812488
 20
470.3418068839
 30
0.0
  0
SPLINE
  5
3AF
100
AcDbEntity
  8
0
100
AcDbSpline
 62
3
  6
CONTINUOUS
 70
0
 71
3
 72
10
 73
6
 74
0
 42
0.0000001
 43
0.0000001
 44
0.0000000001
 40
0.0
 40
0.0
 40
0.0
 40
0.0
 40
0.2360347138
 40
0.4811083347
 40
1.0
 40
1.0
 40
1.0
 40
1.0
 10
175.3493416346
 20
305.7401567169
 30
0.0
 10
175.6571645903
 20
305.2059058915
 30
0.0
 10
176.4203655471
 20
304.1899017581
 30
0.0
 10
178.4248726615
 20
302.4909767914
 30
0.0
 10
180.3308039417
 20
301.7071844755
 30
0.0
 10
181.6532121208
 20
301.4095653315
 30
0.0
  0
SPLINE
  5
3B0
100
AcDbEntity
  8
0
100
AcDbSpline
 62
3
  6
CONTINUOUS
 70
0
 71
3
 72
16
 73
12
 74
0
 42
0.0000001
 43
0.0000001
 44
0.0000000001
 40
0.0
 40
0.0
 40
0.0
 40
0.0
 40
0.1185407332
 40
0.2477202945
 40
0.3154258302
 40
0.3842961412
 40
0.5223974536
 40
0.6563948222
 40
0.781481093
 40
0.895429323
 40
1.0
 40
1.0
 40
1.0
 40
1.0
 10
259.8043024429
 20
422.235458702
 30
0.0
 10
259.8043024429
 20
421.2768083722
 30
0.0
 10
260.1571526747
 20
419.2674246004
 30
0.0
 10
261.2751804358
 20
416.9450767177
 30
0.0
 10
262.5322289693
 20
415.1968941279
 30
0.0
 10
264.0298179393
 20
413.5506504964
 30
0.0
 10
266.2178544816
 20
411.8322221044
 30
0.0
 10
269.1485137851
 20
410.4487238578
 30
0.0
 10
272.1459433995
 20
409.8652274749
 30
0.0
 10
274.9573580645
 20
410.1523153458
 30
0.0
 10
276.5828874171
 20
410.9741667425
 30
0.0
 10
277.2392812488
 20
411.5073742038
 30
0.0
  0
SPLINE
  5
3B1
100
AcDbEntity
  8
0
100
AcDbSpline
 62
3
  6
CONTINUOUS
 70
0
 71
3
 72
13
 73
9
 74
0
 42
0.0000001
 43
0.0000001
 44
0.0000000001
 40
0.0
 40
0.0
 40
0.0
 40
0.0
 40
0.2289034133
 40
0.3536764051
 40
0.4830622456
 40
0.6148844933
 40
0.7466996347
 40
1.0
 40
1.0
 40
1.0
 40
1.0
 10
259.8043024429
 20
363.4010260218
 30
0.0
 10
259.8043024429
 20
362.1210365067
 30
0.0
 10
260.2705732773
 20
360.1316632154
 30
0.0
 10
261.5223225969
 20
357.7330901671
 30
0.0
 10
262.8129577145
 20
355.9909232739
 30
0.0
 10
264.3764954878
 20
354.4343162266
 30
0.0
 10
266.7043859192
 20
352.7113333361
 30
0.0
 10
268.7164203998
 20
351.817731087
 30
0.0
 10
270.0918946592
 20
351.4796529003
 30
0.0
  0
ARC
  5
3B2
100
AcDbEntity
  8
0
100
AcDbCircle
 62
3
  6
CONTINUOUS
 10
181.7376127185
 20
368.2749273942
 40
7.3818712737
100
AcDbArc
 50
198.2311486418
 51
204.5083301581
  0
SPLINE
  5
3B3
100
AcDbEntity
  8
0
100
AcDbSpline
 62
3
  6
CONTINUOUS
 70
0
 71
3
 72
17
 73
13
 74
0
 42
0.0000001
 43
0.0000001
 44
0.0000000001
 40
0.0
 40
0.0
 40
0.0
 40
0.0
 40
0.0563446685
 40
0.1142909606
 40
0.2360334598
 40
0.3661081845
 40
0.5011752827
 40
0.6359822903
 40
0.7653720207
 40
0.8862816031
 40
0.9438842939
 40
1.0
 40
1.0
 40
1.0
 40
1.0
 10
175.0208408894
 20
365.2127386838
 30
0.0
 10
175.2402105546
 20
364.7313998818
 30
0.0
 10
175.7916058215
 20
363.8001314042
 30
0.0
 10
177.2885982195
 20
362.1496169138
 30
0.0
 10
179.8310467774
 20
360.603785199
 30
0.0
 10
183.4277724164
 20
359.7969857268
 30
0.0
 10
187.2240863602
 20
360.0540037479
 30
0.0
 10
190.7969834586
 20
361.3446047565
 30
0.0
 10
193.747400443
 20
363.5279402271
 30
0.0
 10
195.4270815894
 20
365.9646113801
 30
0.0
 10
196.1064677102
 20
368.0731956679
 30
0.0
 10
196.221984137
 20
369.143974729
 30
0.0
 10
196.221984137
 20
369.6707959875
 30
0.0
  0
ARC
  5
3B4
100
AcDbEntity
  8
0
100
AcDbCircle
 62
3
  6
CONTINUOUS
 10
181.7376127185
 20
427.1093600743
 40
7.3818712737
100
AcDbArc
 50
198.2311486418
 51
204.5083301581
  0
SPLINE
  5
3B5
100
AcDbEntity
  8
0
100
AcDbSpline
 62
3
  6
CONTINUOUS
 70
0
 71
3
 72
17
 73
13
 74
0
 42
0.0000001
 43
0.0000001
 44
0.0000000001
 40
0.0
 40
0.0
 40
0.0
 40
0.0
 40
0.0563446685
 40
0.1142909606
 40
0.2360334598
 40
0.3661081845
 40
0.5011752827
 40
0.6359822903
 40
0.7653720207
 40
0.8862816031
 40
0.9438842939
 40
1.0
 40
1.0
 40
1.0
 40
1.0
 10
175.0208408894
 20
424.047171364
 30
0.0
 10
175.2402105546
 20
423.5658325619
 30
0.0
 10
175.7916058215
 20
422.6345640844
 30
0.0
 10
177.2885982195
 20
420.984049594
 30
0.0
 10
179.8310467774
 20
419.4382178792
 30
0.0
 10
183.4277724164
 20
418.6314184069
 30
0.0
 10
187.2240863602
 20
418.888436428
 30
0.0
 10
190.7969834586
 20
420.1790374367
 30
0.0
 10
193.747400443
 20
422.3623729072
 30
0.0
 10
195.4270815894
 20
424.7990440603
 30
0.0
 10
196.1064677102
 20
426.907628348
 30
0.0
 10
196.221984137
 20
427.9784074092
 30
0.0
 10
196.221984137
 20
428.5052286676
 30
0.0
  0
SPLINE
  5
3B6
100
AcDbEntity
  8
0
100
AcDbSpline
 62
3
  6
CONTINUOUS
 70
0
 71
3
 72
15
 73
11
 74
0
 42
0.0000001
 43
0.0000001
 44
0.0000000001
 40
0.0
 40
0.0
 40
0.0
 40
0.0
 40
0.1273397656
 40
0.2669142957
 40
0.4122796792
 40
0.5565296826
 40
0.6928452804
 40
0.8150544257
 40
0.9182903114
 40
1.0
 40
1.0
 40
1.0
 40
1.0
 10
324.2382058623
 20
449.6536263276
 30
0.0
 10
324.2382058623
 20
448.9029541806
 30
0.0
 10
324.3424916182
 20
447.328988108
 30
0.0
 10
324.7392325325
 20
444.9282107085
 30
0.0
 10
325.366298266
 20
442.4738725405
 30
0.0
 10
326.1901689814
 20
440.0987179955
 30
0.0
 10
327.1656103041
 20
437.9303840353
 30
0.0
 10
328.2407432132
 20
436.0819784325
 30
0.0
 10
329.3550932647
 20
434.6490992366
 30
0.0
 10
330.1923937348
 20
433.9251743159
 30
0.0
 10
330.6097272274
 20
433.6846547579
 30
0.0
  0
ARC
  5
3B7
100
AcDbEntity
  8
0
100
AcDbCircle
 62
3
  6
CONTINUOUS
 10
341.6556373726
 20
390.8226104956
 40
17.4174318454
100
AcDbArc
 50
180.0112399451
 51
182.0767892053
  0
ARC
  5
3B8
100
AcDbEntity
  8
0
100
AcDbCircle
 62
3
  6
CONTINUOUS
 10
181.7376127185
 20
485.9437927544
 40
7.3818712737
100
AcDbArc
 50
198.2311486418
 51
204.5083301581
  0
SPLINE
  5
3B9
100
AcDbEntity
  8
0
100
AcDbSpline
 62
3
  6
CONTINUOUS
 70
0
 71
3
 72
17
 73
13
 74
0
 42
0.0000001
 43
0.0000001
 44
0.0000000001
 40
0.0
 40
0.0
 40
0.0
 40
0.0
 40
0.0563446685
 40
0.1142909606
 40
0.2360334598
 40
0.3661081845
 40
0.5011752827
 40
0.6359822903
 40
0.7653720207
 40
0.8862816031
 40
0.9438842939
 40
1.0
 40
1.0
 40
1.0
 40
1.0
 10
175.0208408894
 20
482.8816040441
 30
0.0
 10
175.2402105546
 20
482.4002652421
 30
0.0
 10
175.7916058215
 20
481.4689967645
 30
0.0
 10
177.2885982195
 20
479.8184822741
 30
0.0
 10
179.8310467774
 20
478.2726505593
 30
0.0
 10
183.4277724164
 20
477.4658510871
 30
0.0
 10
187.2240863602
 20
477.7228691082
 30
0.0
 10
190.7969834586
 20
479.0134701168
 30
0.0
 10
193.747400443
 20
481.1968055873
 30
0.0
 10
195.4270815894
 20
483.6334767404
 30
0.0
 10
196.1064677102
 20
485.7420610281
 30
0.0
 10
196.221984137
 20
486.8128400893
 30
0.0
 10
196.221984137
 20
487.3396613478
 30
0.0
  0
SPLINE
  5
3BA
100
AcDbEntity
  8
0
100
AcDbSpline
 62
3
  6
CONTINUOUS
 70
0
 71
3
 72
19
 73
15
 74
0
 42
0.0000001
 43
0.0000001
 44
0.0000000001
 40
0.0
 40
0.0
 40
0.0
 40
0.0
 40
0.1520086152
 40
0.3196140429
 40
0.4904718341
 40
0.6519900661
 40
0.7922926994
 40
0.851208811
 40
0.9011691619
 40
0.9413123291
 40
0.971030881
 40
0.9819078863
 40
0.9901834455
 40
1.0
 40
1.0
 40
1.0
 40
1.0
 10
342.4951765068
 20
389.4451603136
 30
0.0
 10
342.4951765068
 20
390.3326893602
 30
0.0
 10
342.5315379241
 20
392.1988425589
 30
0.0
 10
342.6648083252
 20
395.0597025583
 30
0.0
 10
342.872077733
 20
397.9718882578
 30
0.0
 10
343.1380516129
 20
400.71915002
 30
0.0
 10
343.4031708493
 20
402.809139015
 30
0.0
 10
343.6368163116
 20
404.2453934821
 30
0.0
 10
343.8017350756
 20
405.0996245457
 30
0.0
 10
343.965157517
 20
405.7809303774
 30
0.0
 10
344.1027408622
 20
406.2306239826
 30
0.0
 10
344.2199872114
 20
406.4947653243
 30
0.0
 10
344.3006386644
 20
406.6358148792
 30
0.0
 10
344.3920030905
 20
406.7260090097
 30
0.0
 10
344.4491986046
 20
406.7222995056
 30
0.0
  0
SPLINE
  5
3BB
100
AcDbEntity
  8
0
100
AcDbSpline
 62
3
  6
CONTINUOUS
 70
0
 71
3
 72
19
 73
15
 74
0
 42
0.0000001
 43
0.0000001
 44
0.0000000001
 40
0.0
 40
0.0
 40
0.0
 40
0.0
 40
0.1520086152
 40
0.3196140429
 40
0.4904718341
 40
0.6519900661
 40
0.7922926994
 40
0.851208811
 40
0.9011691619
 40
0.9413123291
 40
0.971030881
 40
0.9819078863
 40
0.9901834455
 40
1.0
 40
1.0
 40
1.0
 40
1.0
 10
342.4951765068
 20
330.6107276335
 30
0.0
 10
342.4951765068
 20
331.4982566801
 30
0.0
 10
342.5315379241
 20
333.3644098788
 30
0.0
 10
342.6648083252
 20
336.2252698781
 30
0.0
 10
342.872077733
 20
339.1374555776
 30
0.0
 10
343.1380516129
 20
341.8847173399
 30
0.0
 10
343.4031708493
 20
343.9747063349
 30
0.0
 10
343.6368163116
 20
345.4109608019
 30
0.0
 10
343.8017350756
 20
346.2651918656
 30
0.0
 10
343.965157517
 20
346.9464976972
 30
0.0
 10
344.1027408622
 20
347.3961913025
 30
0.0
 10
344.2199872114
 20
347.6603326442
 30
0.0
 10
344.3006386644
 20
347.8013821991
 30
0.0
 10
344.3920030905
 20
347.8915763296
 30
0.0
 10
344.4491986046
 20
347.8878668255
 30
0.0
  0
SPLINE
  5
3BC
100
AcDbEntity
  8
0
100
AcDbSpline
 62
3
  6
CONTINUOUS
 70
0
 71
3
 72
19
 73
15
 74
0
 42
0.0000001
 43
0.0000001
 44
0.0000000001
 40
0.0
 40
0.0
 40
0.0
 40
0.0
 40
0.1520086152
 40
0.3196140429
 40
0.4904718341
 40
0.6519900661
 40
0.7922926994
 40
0.851208811
 40
0.9011691619
 40
0.9413123291
 40
0.971030881
 40
0.9819078863
 40
0.9901834455
 40
1.0
 40
1.0
 40
1.0
 40
1.0
 10
342.4951765068
 20
271.7762949534
 30
0.0
 10
342.4951765068
 20
272.6638239999
 30
0.0
 10
342.5315379241
 20
274.5299771987
 30
0.0
 10
342.6648083252
 20
277.390837198
 30
0.0
 10
342.872077733
 20
280.3030228975
 30
0.0
 10
343.1380516129
 20
283.0502846598
 30
0.0
 10
343.4031708493
 20
285.1402736547
 30
0.0
 10
343.6368163116
 20
286.5765281218
 30
0.0
 10
343.8017350756
 20
287.4307591854
 30
0.0
 10
343.965157517
 20
288.1120650171
 30
0.0
 10
344.1027408622
 20
288.5617586224
 30
0.0
 10
344.2199872114
 20
288.825899964
 30
0.0
 10
344.3006386644
 20
288.966949519
 30
0.0
 10
344.3920030905
 20
289.0571436494
 30
0.0
 10
344.4491986046
 20
289.0534341454
 30
0.0
  0
SPLINE
  5
3BD
100
AcDbEntity
  8
0
100
AcDbSpline
 62
3
  6
CONTINUOUS
 70
0
 71
3
 72
19
 73
15
 74
0
 42
0.0000001
 43
0.0000001
 44
0.0000000001
 40
0.0
 40
0.0
 40
0.0
 40
0.0
 40
0.1520086152
 40
0.3196140429
 40
0.4904718341
 40
0.6519900661
 40
0.7922926994
 40
0.851208811
 40
0.9011691619
 40
0.9413123291
 40
0.971030881
 40
0.9819078863
 40
0.9901834455
 40
1.0
 40
1.0
 40
1.0
 40
1.0
 10
342.4951765068
 20
212.9418622732
 30
0.0
 10
342.4951765068
 20
213.8293913198
 30
0.0
 10
342.5315379241
 20
215.6955445185
 30
0.0
 10
342.6648083252
 20
218.5564045179
 30
0.0
 10
342.872077733
 20
221.4685902174
 30
0.0
 10
343.1380516129
 20
224.2158519796
 30
0.0
 10
343.4031708493
 20
226.3058409746
 30
0.0
 10
343.6368163116
 20
227.7420954417
 30
0.0
 10
343.8017350756
 20
228.5963265053
 30
0.0
 10
343.965157517
 20
229.277632337
 30
0.0
 10
344.1027408622
 20
229.7273259422
 30
0.0
 10
344.2199872114
 20
229.9914672839
 30
0.0
 10
344.3006386644
 20
230.1325168388
 30
0.0
 10
344.3920030905
 20
230.2227109693
 30
0.0
 10
344.4491986046
 20
230.2190014652
 30
0.0
  0
SPLINE
  5
3BE
100
AcDbEntity
  8
0
100
AcDbSpline
 62
3
  6
CONTINUOUS
 70
0
 71
3
 72
19
 73
15
 74
0
 42
0.0000001
 43
0.0000001
 44
0.0000000001
 40
0.0
 40
0.0
 40
0.0
 40
0.0
 40
0.1520086152
 40
0.3196140429
 40
0.4904718341
 40
0.6519900661
 40
0.7922926994
 40
0.851208811
 40
0.9011691619
 40
0.9413123291
 40
0.971030881
 40
0.9819078863
 40
0.9901834455
 40
1.0
 40
1.0
 40
1.0
 40
1.0
 10
342.4951765068
 20
154.1074295931
 30
0.0
 10
342.4951765068
 20
154.9949586397
 30
0.0
 10
342.5315379241
 20
156.8611118384
 30
0.0
 10
342.6648083252
 20
159.7219718378
 30
0.0
 10
342.872077733
 20
162.6341575372
 30
0.0
 10
343.1380516129
 20
165.3814192995
 30
0.0
 10
343.4031708493
 20
167.4714082945
 30
0.0
 10
343.6368163116
 20
168.9076627616
 30
0.0
 10
343.8017350756
 20
169.7618938252
 30
0.0
 10
343.965157517
 20
170.4431996568
 30
0.0
 10
344.1027408622
 20
170.8928932621
 30
0.0
 10
344.2199872114
 20
171.1570346038
 30
0.0
 10
344.3006386644
 20
171.2980841587
 30
0.0
 10
344.3920030905
 20
171.3882782892
 30
0.0
 10
344.4491986046
 20
171.3845687851
 30
0.0
  0
SPLINE
  5
3BF
100
AcDbEntity
  8
0
100
AcDbSpline
 62
3
  6
CONTINUOUS
 70
0
 71
3
 72
12
 73
8
 74
0
 42
0.0000001
 43
0.0000001
 44
0.0000000001
 40
0.0
 40
0.0
 40
0.0
 40
0.0
 40
0.3185843985
 40
0.5872750246
 40
0.8085580559
 40
0.9064403698
 40
1.0
 40
1.0
 40
1.0
 40
1.0
 10
308.7082859391
 20
343.745465066
 30
0.0
 10
308.7082859391
 20
343.1376879367
 30
0.0
 10
308.7823835964
 20
342.0137904196
 30
0.0
 10
309.1702281758
 20
340.5100406999
 30
0.0
 10
309.7497162952
 20
339.5197461107
 30
0.0
 10
310.3460880162
 20
338.9960675226
 30
0.0
 10
310.6734661406
 20
338.8246837504
 30
0.0
 10
310.8406811394
 20
338.7622577062
 30
0.0
  0
SPLINE
  5
3C0
100
AcDbEntity
  8
0
100
AcDbSpline
 62
3
  6
CONTINUOUS
 70
0
 71
3
 72
12
 73
8
 74
0
 42
0.0000001
 43
0.0000001
 44
0.0000000001
 40
0.0
 40
0.0
 40
0.0
 40
0.0
 40
0.3185843985
 40
0.5872750246
 40
0.8085580559
 40
0.9064403698
 40
1.0
 40
1.0
 40
1.0
 40
1.0
 10
308.7082859391
 20
284.9110323858
 30
0.0
 10
308.7082859391
 20
284.3032552566
 30
0.0
 10
308.7823835964
 20
283.1793577395
 30
0.0
 10
309.1702281758
 20
281.6756080198
 30
0.0
 10
309.7497162952
 20
280.6853134305
 30
0.0
 10
310.3460880162
 20
280.1616348425
 30
0.0
 10
310.6734661406
 20
279.9902510703
 30
0.0
 10
310.8406811394
 20
279.9278250261
 30
0.0
  0
SPLINE
  5
3C1
100
AcDbEntity
  8
0
100
AcDbSpline
 62
3
  6
CONTINUOUS
 70
0
 71
3
 72
12
 73
8
 74
0
 42
0.0000001
 43
0.0000001
 44
0.0000000001
 40
0.0
 40
0.0
 40
0.0
 40
0.0
 40
0.3185843985
 40
0.5872750246
 40
0.8085580559
 40
0.9064403698
 40
1.0
 40
1.0
 40
1.0
 40
1.0
 10
308.7082859391
 20
226.0765997057
 30
0.0
 10
308.7082859391
 20
225.4688225764
 30
0.0
 10
308.7823835964
 20
224.3449250594
 30
0.0
 10
309.1702281758
 20
222.8411753396
 30
0.0
 10
309.7497162952
 20
221.8508807504
 30
0.0
 10
310.3460880162
 20
221.3272021624
 30
0.0
 10
310.6734661406
 20
221.1558183901
 30
0.0
 10
310.8406811394
 20
221.0933923459
 30
0.0
  0
SPLINE
  5
3C2
100
AcDbEntity
  8
0
100
AcDbSpline
 62
3
  6
CONTINUOUS
 70
0
 71
3
 72
12
 73
8
 74
0
 42
0.0000001
 43
0.0000001
 44
0.0000000001
 40
0.0
 40
0.0
 40
0.0
 40
0.0
 40
0.3185843985
 40
0.5872750246
 40
0.8085580559
 40
0.9064403698
 40
1.0
 40
1.0
 40
1.0
 40
1.0
 10
308.7082859391
 20
167.2421670256
 30
0.0
 10
308.7082859391
 20
166.6343898963
 30
0.0
 10
308.7823835964
 20
165.5104923792
 30
0.0
 10
309.1702281758
 20
164.0067426595
 30
0.0
 10
309.7497162952
 20
163.0164480703
 30
0.0
 10
310.3460880162
 20
162.4927694822
 30
0.0
 10
310.6734661406
 20
162.32138571
 30
0.0
 10
310.8406811394
 20
162.2589596658
 30
0.0
  0
SPLINE
  5
3C3
100
AcDbEntity
  8
0
100
AcDbSpline
 62
3
  6
CONTINUOUS
 70
0
 71
3
 72
12
 73
8
 74
0
 42
0.0000001
 43
0.0000001
 44
0.0000000001
 40
0.0
 40
0.0
 40
0.0
 40
0.0
 40
0.3185843985
 40
0.5872750246
 40
0.8085580559
 40
0.9064403698
 40
1.0
 40
1.0
 40
1.0
 40
1.0
 10
308.7082859391
 20
108.4077343455
 30
0.0
 10
308.7082859391
 20
107.7999572162
 30
0.0
 10
308.7823835964
 20
106.6760596991
 30
0.0
 10
309.1702281758
 20
105.1723099794
 30
0.0
 10
309.7497162952
 20
104.1820153902
 30
0.0
 10
310.3460880162
 20
103.6583368021
 30
0.0
 10
310.6734661406
 20
103.4869530299
 30
0.0
 10
310.8406811394
 20
103.4245269857
 30
0.0
  0
SPLINE
  5
3C4
100
AcDbEntity
  8
0
100
AcDbSpline
 62
3
  6
CONTINUOUS
 70
0
 71
3
 72
16
 73
12
 74
0
 42
0.0000001
 43
0.0000001
 44
0.0000000001
 40
0.0
 40
0.0
 40
0.0
 40
0.0
 40
0.1226644597
 40
0.257145139
 40
0.398151284
 40
0.538749803
 40
0.6721046975
 40
0.7932291167
 40
0.9009036315
 40
0.951089956
 40
1.0
 40
1.0
 40
1.0
 40
1.0
 10
244.3547668966
 20
310.4003733329
 30
0.0
 10
244.3547668966
 20
311.3822862787
 30
0.0
 10
244.699495278
 20
313.445439281
 30
0.0
 10
246.0020608384
 20
316.3823665082
 30
0.0
 10
247.9923324948
 20
319.084757119
 30
0.0
 10
250.4920618885
 20
321.3097397221
 30
0.0
 10
253.283220525
 20
322.8585594255
 30
0.0
 10
256.1268766639
 20
323.5897155547
 30
0.0
 10
258.4114028235
 20
323.4195484489
 30
0.0
 10
259.9528572746
 20
322.785200077
 30
0.0
 10
260.6083695354
 20
322.3243317607
 30
0.0
 10
260.9008193599
 20
322.0640245642
 30
0.0
  0
SPLINE
  5
3C5
100
AcDbEntity
  8
0
100
AcDbSpline
 62
3
  6
CONTINUOUS
 70
0
 71
3
 72
16
 73
12
 74
0
 42
0.0000001
 43
0.0000001
 44
0.0000000001
 40
0.0
 40
0.0
 40
0.0
 40
0.0
 40
0.1226644597
 40
0.257145139
 40
0.398151284
 40
0.538749803
 40
0.6721046975
 40
0.7932291167
 40
0.9009036315
 40
0.951089956
 40
1.0
 40
1.0
 40
1.0
 40
1.0
 10
244.3547668966
 20
251.5659406528
 30
0.0
 10
244.3547668966
 20
252.5478535986
 30
0.0
 10
244.699495278
 20
254.6110066009
 30
0.0
 10
246.0020608384
 20
257.5479338281
 30
0.0
 10
247.9923324948
 20
260.2503244389
 30
0.0
 10
250.4920618885
 20
262.4753070419
 30
0.0
 10
253.283220525
 20
264.0241267453
 30
0.0
 10
256.1268766639
 20
264.7552828746
 30
0.0
 10
258.4114028235
 20
264.5851157688
 30
0.0
 10
259.9528572746
 20
263.9507673969
 30
0.0
 10
260.6083695354
 20
263.4898990806
 30
0.0
 10
260.9008193599
 20
263.2295918841
 30
0.0
  0
SPLINE
  5
3C6
100
AcDbEntity
  8
0
100
AcDbSpline
 62
3
  6
CONTINUOUS
 70
0
 71
3
 72
16
 73
12
 74
0
 42
0.0000001
 43
0.0000001
 44
0.0000000001
 40
0.0
 40
0.0
 40
0.0
 40
0.0
 40
0.1226644597
 40
0.257145139
 40
0.398151284
 40
0.538749803
 40
0.6721046975
 40
0.7932291167
 40
0.9009036315
 40
0.951089956
 40
1.0
 40
1.0
 40
1.0
 40
1.0
 10
244.3547668966
 20
192.7315079727
 30
0.0
 10
244.3547668966
 20
193.7134209185
 30
0.0
 10
244.699495278
 20
195.7765739207
 30
0.0
 10
246.0020608384
 20
198.7135011479
 30
0.0
 10
247.9923324948
 20
201.4158917587
 30
0.0
 10
250.4920618885
 20
203.6408743618
 30
0.0
 10
253.283220525
 20
205.1896940652
 30
0.0
 10
256.1268766639
 20
205.9208501944
 30
0.0
 10
258.4114028235
 20
205.7506830887
 30
0.0
 10
259.9528572746
 20
205.1163347167
 30
0.0
 10
260.6083695354
 20
204.6554664004
 30
0.0
 10
260.9008193599
 20
204.3951592039
 30
0.0
  0
SPLINE
  5
3C7
100
AcDbEntity
  8
0
100
AcDbSpline
 62
3
  6
CONTINUOUS
 70
0
 71
3
 72
16
 73
12
 74
0
 42
0.0000001
 43
0.0000001
 44
0.0000000001
 40
0.0
 40
0.0
 40
0.0
 40
0.0
 40
0.1226644597
 40
0.257145139
 40
0.398151284
 40
0.538749803
 40
0.6721046975
 40
0.7932291167
 40
0.9009036315
 40
0.951089956
 40
1.0
 40
1.0
 40
1.0
 40
1.0
 10
244.3547668966
 20
133.8970752926
 30
0.0
 10
244.3547668966
 20
134.8789882383
 30
0.0
 10
244.699495278
 20
136.9421412406
 30
0.0
 10
246.0020608384
 20
139.8790684678
 30
0.0
 10
247.9923324948
 20
142.5814590786
 30
0.0
 10
250.4920618885
 20
144.8064416817
 30
0.0
 10
253.283220525
 20
146.3552613851
 30
0.0
 10
256.1268766639
 20
147.0864175143
 30
0.0
 10
258.4114028235
 20
146.9162504085
 30
0.0
 10
259.9528572746
 20
146.2819020366
 30
0.0
 10
260.6083695354
 20
145.8210337203
 30
0.0
 10
260.9008193599
 20
145.5607265238
 30
0.0
  0
SPLINE
  5
3C8
100
AcDbEntity
  8
0
100
AcDbSpline
 62
3
  6
CONTINUOUS
 70
0
 71
3
 72
16
 73
12
 74
0
 42
0.0000001
 43
0.0000001
 44
0.0000000001
 40
0.0
 40
0.0
 40
0.0
 40
0.0
 40
0.1226644597
 40
0.257145139
 40
0.398151284
 40
0.538749803
 40
0.6721046975
 40
0.7932291167
 40
0.9009036315
 40
0.951089956
 40
1.0
 40
1.0
 40
1.0
 40
1.0
 10
244.3547668966
 20
75.0626426124
 30
0.0
 10
244.3547668966
 20
76.0445555582
 30
0.0
 10
244.699495278
 20
78.1077085605
 30
0.0
 10
246.0020608384
 20
81.0446357877
 30
0.0
 10
247.9923324948
 20
83.7470263985
 30
0.0
 10
250.4920618885
 20
85.9720090015
 30
0.0
 10
253.283220525
 20
87.5208287049
 30
0.0
 10
256.1268766639
 20
88.2519848342
 30
0.0
 10
258.4114028235
 20
88.0818177284
 30
0.0
 10
259.9528572746
 20
87.4474693565
 30
0.0
 10
260.6083695354
 20
86.9866010402
 30
0.0
 10
260.9008193599
 20
86.7262938437
 30
0.0
  0
SPLINE
  5
3C9
100
AcDbEntity
  8
0
100
AcDbSpline
 62
3
  6
CONTINUOUS
 70
0
 71
3
 72
11
 73
7
 74
0
 42
0.0000001
 43
0.0000001
 44
0.0000000001
 40
0.0
 40
0.0
 40
0.0
 40
0.0
 40
0.2731894807
 40
0.5317255877
 40
0.7721907297
 40
1.0
 40
1.0
 40
1.0
 40
1.0
 10
174.2154358028
 20
271.2653097462
 30
0.0
 10
174.7028591231
 20
271.2971233724
 30
0.0
 10
175.6670818319
 20
271.2246907503
 30
0.0
 10
176.9701141657
 20
270.6993074404
 30
0.0
 10
177.9559824317
 20
269.8052912444
 30
0.0
 10
178.3071790041
 20
269.0114232288
 30
0.0
 10
178.385716267
 20
268.611745476
 30
0.0
  0
LINE
  5
3CA
100
AcDbEntity
  8
0
100
AcDbLine
 62
3
  6
CONTINUOUS
 10
169.2471830028
 20
270.9410369204
 11
174.2154358028
 21
271.2653097462
  0
SPLINE
  5
3CB
100
AcDbEntity
  8
0
100
AcDbSpline
 62
3
  6
CONTINUOUS
 70
0
 71
3
 72
11
 73
7
 74
0
 42
0.0000001
 43
0.0000001
 44
0.0000000001
 40
0.0
 40
0.0
 40
0.0
 40
0.0
 40
0.2731894807
 40
0.5317255877
 40
0.7721907297
 40
1.0
 40
1.0
 40
1.0
 40
1.0
 10
174.2154358028
 20
94.7620117058
 30
0.0
 10
174.7028591231
 20
94.793825332
 30
0.0
 10
175.6670818319
 20
94.7213927099
 30
0.0
 10
176.9701141657
 20
94.1960094
 30
0.0
 10
177.9559824317
 20
93.3019932041
 30
0.0
 10
178.3071790041
 20
92.5081251884
 30
0.0
 10
178.385716267
 20
92.1084474356
 30
0.0
  0
LINE
  5
3CC
100
AcDbEntity
  8
0
100
AcDbLine
 62
3
  6
CONTINUOUS
 10
169.2471830028
 20
94.4377388801
 11
174.2154358028
 21
94.7620117058
  0
SPLINE
  5
3CD
100
AcDbEntity
  8
0
100
AcDbSpline
 62
3
  6
CONTINUOUS
 70
0
 71
3
 72
18
 73
14
 74
0
 42
0.0000001
 43
0.0000001
 44
0.0000000001
 40
0.0
 40
0.0
 40
0.0
 40
0.0
 40
0.0565639455
 40
0.1147724225
 40
0.237412371
 40
0.3689060937
 40
0.5051929008
 40
0.6401356089
 40
0.7681609224
 40
0.8289158634
 40
0.8874303771
 40
0.9441963597
 40
1.0
 40
1.0
 40
1.0
 40
1.0
 10
160.8011532428
 20
296.3341236388
 30
0.0
 10
160.8011532428
 20
296.8972553038
 30
0.0
 10
160.933502256
 20
298.0437028929
 30
0.0
 10
161.7098800322
 20
300.2924166202
 30
0.0
 10
163.6192562967
 20
302.8499653264
 30
0.0
 10
166.9155509899
 20
305.0290308744
 30
0.0
 10
170.8281879495
 20
306.150999941
 30
0.0
 10
174.8617604056
 20
306.079277694
 30
0.0
 10
177.9702975653
 20
304.9900313479
 30
0.0
 10
179.9882926803
 20
303.5555562451
 30
0.0
 10
181.1950142895
 20
302.2666416403
 30
0.0
 10
182.0730006942
 20
300.7915955429
 30
0.0
 10
182.4179147627
 20
299.7130393796
 30
0.0
 10
182.525012673
 20
299.1678976259
 30
0.0
  0
SPLINE
  5
3CE
100
AcDbEntity
  8
0
100
AcDbSpline
 62
3
  6
CONTINUOUS
 70
0
 71
3
 72
18
 73
14
 74
0
 42
0.0000001
 43
0.0000001
 44
0.0000000001
 40
0.0
 40
0.0
 40
0.0
 40
0.0
 40
0.0565639455
 40
0.1147724225
 40
0.237412371
 40
0.3689060937
 40
0.5051929008
 40
0.6401356089
 40
0.7681609224
 40
0.8289158634
 40
0.8874303771
 40
0.9441963597
 40
1.0
 40
1.0
 40
1.0
 40
1.0
 10
160.8011532428
 20
237.4996909587
 30
0.0
 10
160.8011532428
 20
238.0628226237
 30
0.0
 10
160.933502256
 20
239.2092702128
 30
0.0
 10
161.7098800322
 20
241.4579839401
 30
0.0
 10
163.6192562967
 20
244.0155326463
 30
0.0
 10
166.9155509899
 20
246.1945981943
 30
0.0
 10
170.8281879495
 20
247.3165672609
 30
0.0
 10
174.8617604056
 20
247.2448450139
 30
0.0
 10
177.9702975653
 20
246.1555986678
 30
0.0
 10
179.9882926803
 20
244.721123565
 30
0.0
 10
181.1950142895
 20
243.4322089602
 30
0.0
 10
182.0730006942
 20
241.9571628628
 30
0.0
 10
182.4179147627
 20
240.8786066994
 30
0.0
 10
182.525012673
 20
240.3334649458
 30
0.0
  0
SPLINE
  5
3CF
100
AcDbEntity
  8
0
100
AcDbSpline
 62
3
  6
CONTINUOUS
 70
0
 71
3
 72
18
 73
14
 74
0
 42
0.0000001
 43
0.0000001
 44
0.0000000001
 40
0.0
 40
0.0
 40
0.0
 40
0.0
 40
0.0565639455
 40
0.1147724225
 40
0.237412371
 40
0.3689060937
 40
0.5051929008
 40
0.6401356089
 40
0.7681609224
 40
0.8289158634
 40
0.8874303771
 40
0.9441963597
 40
1.0
 40
1.0
 40
1.0
 40
1.0
 10
160.8011532428
 20
178.6652582785
 30
0.0
 10
160.8011532428
 20
179.2283899435
 30
0.0
 10
160.933502256
 20
180.3748375326
 30
0.0
 10
161.7098800322
 20
182.62355126
 30
0.0
 10
163.6192562967
 20
185.1810999661
 30
0.0
 10
166.9155509899
 20
187.3601655142
 30
0.0
 10
170.8281879495
 20
188.4821345808
 30
0.0
 10
174.8617604056
 20
188.4104123337
 30
0.0
 10
177.9702975653
 20
187.3211659877
 30
0.0
 10
179.9882926803
 20
185.8866908848
 30
0.0
 10
181.1950142895
 20
184.59777628
 30
0.0
 10
182.0730006942
 20
183.1227301826
 30
0.0
 10
182.4179147627
 20
182.0441740193
 30
0.0
 10
182.525012673
 20
181.4990322657
 30
0.0
  0
SPLINE
  5
3D0
100
AcDbEntity
  8
0
100
AcDbSpline
 62
3
  6
CONTINUOUS
 70
0
 71
3
 72
18
 73
14
 74
0
 42
0.0000001
 43
0.0000001
 44
0.0000000001
 40
0.0
 40
0.0
 40
0.0
 40
0.0
 40
0.0565639455
 40
0.1147724225
 40
0.237412371
 40
0.3689060937
 40
0.5051929008
 40
0.6401356089
 40
0.7681609224
 40
0.8289158634
 40
0.8874303771
 40
0.9441963597
 40
1.0
 40
1.0
 40
1.0
 40
1.0
 10
160.8011532428
 20
119.8308255984
 30
0.0
 10
160.8011532428
 20
120.3939572634
 30
0.0
 10
160.933502256
 20
121.5404048525
 30
0.0
 10
161.7098800322
 20
123.7891185799
 30
0.0
 10
163.6192562967
 20
126.346667286
 30
0.0
 10
166.9155509899
 20
128.525732834
 30
0.0
 10
170.8281879495
 20
129.6477019007
 30
0.0
 10
174.8617604056
 20
129.5759796536
 30
0.0
 10
177.9702975653
 20
128.4867333075
 30
0.0
 10
179.9882926803
 20
127.0522582047
 30
0.0
 10
181.1950142895
 20
125.7633435999
 30
0.0
 10
182.0730006942
 20
124.2882975025
 30
0.0
 10
182.4179147627
 20
123.2097413392
 30
0.0
 10
182.525012673
 20
122.6645995855
 30
0.0
  0
SPLINE
  5
3D1
100
AcDbEntity
  8
0
100
AcDbSpline
 62
3
  6
CONTINUOUS
 70
0
 71
3
 72
18
 73
14
 74
0
 42
0.0000001
 43
0.0000001
 44
0.0000000001
 40
0.0
 40
0.0
 40
0.0
 40
0.0
 40
0.0565639455
 40
0.1147724225
 40
0.237412371
 40
0.3689060937
 40
0.5051929008
 40
0.6401356089
 40
0.7681609224
 40
0.8289158634
 40
0.8874303771
 40
0.9441963597
 40
1.0
 40
1.0
 40
1.0
 40
1.0
 10
160.8011532428
 20
60.9963929183
 30
0.0
 10
160.8011532428
 20
61.5595245833
 30
0.0
 10
160.933502256
 20
62.7059721724
 30
0.0
 10
161.7098800322
 20
64.9546858997
 30
0.0
 10
163.6192562967
 20
67.5122346059
 30
0.0
 10
166.9155509899
 20
69.6913001539
 30
0.0
 10
170.8281879495
 20
70.8132692205
 30
0.0
 10
174.8617604056
 20
70.7415469735
 30
0.0
 10
177.9702975653
 20
69.6523006274
 30
0.0
 10
179.9882926803
 20
68.2178255246
 30
0.0
 10
181.1950142895
 20
66.9289109198
 30
0.0
 10
182.0730006942
 20
65.4538648224
 30
0.0
 10
182.4179147627
 20
64.375308659
 30
0.0
 10
182.525012673
 20
63.8301669054
 30
0.0
  0
SPLINE
  5
3D2
100
AcDbEntity
  8
0
100
AcDbSpline
 62
3
  6
CONTINUOUS
 70
0
 71
3
 72
9
 73
5
 74
0
 42
0.0000001
 43
0.0000001
 44
0.0000000001
 40
0.0
 40
0.0
 40
0.0
 40
0.0
 40
0.4865071537
 40
1.0
 40
1.0
 40
1.0
 40
1.0
 10
260.7362417513
 20
366.9502076299
 30
0.0
 10
260.4262632606
 20
366.435741479
 30
0.0
 10
259.9480289551
 20
365.2762913295
 30
0.0
 10
259.8043024429
 20
364.0349769049
 30
0.0
 10
259.8043024429
 20
363.4010260218
 30
0.0
  0
SPLINE
  5
3D3
100
AcDbEntity
  8
0
100
AcDbSpline
 62
3
  6
CONTINUOUS
 70
0
 71
3
 72
9
 73
5
 74
0
 42
0.0000001
 43
0.0000001
 44
0.0000000001
 40
0.0
 40
0.0
 40
0.0
 40
0.0
 40
0.4865071537
 40
1.0
 40
1.0
 40
1.0
 40
1.0
 10
260.7362417513
 20
425.78464031
 30
0.0
 10
260.4262632606
 20
425.2701741591
 30
0.0
 10
259.9480289551
 20
424.1107240097
 30
0.0
 10
259.8043024429
 20
422.869409585
 30
0.0
 10
259.8043024429
 20
422.235458702
 30
0.0
  0
SPLINE
  5
3D4
100
AcDbEntity
  8
0
100
AcDbSpline
 62
3
  6
CONTINUOUS
 70
0
 71
3
 72
9
 73
5
 74
0
 42
0.0000001
 43
0.0000001
 44
0.0000000001
 40
0.0
 40
0.0
 40
0.0
 40
0.0
 40
0.4865071537
 40
1.0
 40
1.0
 40
1.0
 40
1.0
 10
260.7362417513
 20
484.6190729901
 30
0.0
 10
260.4262632606
 20
484.1046068393
 30
0.0
 10
259.9480289551
 20
482.9451566898
 30
0.0
 10
259.8043024429
 20
481.7038422652
 30
0.0
 10
259.8043024429
 20
481.0698913821
 30
0.0
  0
SPLINE
  5
3D5
100
AcDbEntity
  8
0
100
AcDbSpline
 62
3
  6
CONTINUOUS
 70
0
 71
3
 72
10
 73
6
 74
0
 42
0.0000001
 43
0.0000001
 44
0.0000000001
 40
0.0
 40
0.0
 40
0.0
 40
0.0
 40
0.2015717104
 40
0.4360285291
 40
1.0
 40
1.0
 40
1.0
 40
1.0
 10
324.9504259145
 20
394.6637310442
 30
0.0
 10
324.8250423178
 20
394.4304833423
 30
0.0
 10
324.6094187513
 20
393.8958019333
 30
0.0
 10
324.3032921644
 20
392.6154804586
 30
0.0
 10
324.2382058623
 20
391.560103984
 30
0.0
 10
324.2382058623
 20
390.8191936475
 30
0.0
  0
SPLINE
  5
3D6
100
AcDbEntity
  8
0
100
AcDbSpline
 62
3
  6
CONTINUOUS
 70
0
 71
3
 72
10
 73
6
 74
0
 42
0.0000001
 43
0.0000001
 44
0.0000000001
 40
0.0
 40
0.0
 40
0.0
 40
0.0
 40
0.2015717104
 40
0.4360285291
 40
1.0
 40
1.0
 40
1.0
 40
1.0
 10
324.9504259145
 20
453.4981637243
 30
0.0
 10
324.8250423178
 20
453.2649160224
 30
0.0
 10
324.6094187513
 20
452.7302346134
 30
0.0
 10
324.3032921644
 20
451.4499131388
 30
0.0
 10
324.2382058623
 20
450.3945366641
 30
0.0
 10
324.2382058623
 20
449.6536263276
 30
0.0
  0
SPLINE
  5
3D7
100
AcDbEntity
  8
0
100
AcDbSpline
 62
3
  6
CONTINUOUS
 70
0
 71
3
 72
14
 73
10
 74
0
 42
0.0000001
 43
0.0000001
 44
0.0000000001
 40
0.0
 40
0.0
 40
0.0
 40
0.0
 40
0.0300164201
 40
0.0539053147
 40
0.0848882307
 40
0.1689679114
 40
0.282499643
 40
0.5927720844
 40
1.0
 40
1.0
 40
1.0
 40
1.0
 10
343.0163807162
 20
149.4312808639
 30
0.0
 10
342.9687049125
 20
149.4343729523
 30
0.0
 10
342.8989562592
 20
149.5081211379
 30
0.0
 10
342.8421549226
 20
149.6265012865
 30
0.0
 10
342.7684334379
 20
149.8373678615
 30
0.0
 10
342.6951177231
 20
150.1935611394
 30
0.0
 10
342.5880621006
 20
150.9956488068
 30
0.0
 10
342.5123014821
 20
152.3172460214
 30
0.0
 10
342.4951765068
 20
153.4592607427
 30
0.0
 10
342.4951765068
 20
154.1074295931
 30
0.0
  0
LINE
  5
3D8
100
AcDbEntity
  8
0
100
AcDbLine
 62
3
  6
CONTINUOUS
 10
160.2647647313
 20
31.5441670436
 11
214.9946719943
 21
35.116332631
  0
SPLINE
  5
3D9
100
AcDbEntity
  8
0
100
AcDbSpline
 62
3
  6
CONTINUOUS
 70
0
 71
3
 72
14
 73
10
 74
0
 42
0.0000001
 43
0.0000001
 44
0.0000000001
 40
0.0
 40
0.0
 40
0.0
 40
0.0
 40
0.0300164201
 40
0.0539053147
 40
0.0848882307
 40
0.1689679114
 40
0.282499643
 40
0.5927720844
 40
1.0
 40
1.0
 40
1.0
 40
1.0
 10
343.0163807162
 20
208.265713544
 30
0.0
 10
342.9687049125
 20
208.2688056325
 30
0.0
 10
342.8989562592
 20
208.342553818
 30
0.0
 10
342.8421549226
 20
208.4609339667
 30
0.0
 10
342.7684334379
 20
208.6718005417
 30
0.0
 10
342.6951177231
 20
209.0279938195
 30
0.0
 10
342.5880621006
 20
209.8300814869
 30
0.0
 10
342.5123014821
 20
211.1516787015
 30
0.0
 10
342.4951765068
 20
212.2936934228
 30
0.0
 10
342.4951765068
 20
212.9418622732
 30
0.0
  0
SPLINE
  5
3DA
100
AcDbEntity
  8
0
100
AcDbSpline
 62
3
  6
CONTINUOUS
 70
0
 71
3
 72
14
 73
10
 74
0
 42
0.0000001
 43
0.0000001
 44
0.0000000001
 40
0.0
 40
0.0
 40
0.0
 40
0.0
 40
0.0300164201
 40
0.0539053147
 40
0.0848882307
 40
0.1689679114
 40
0.282499643
 40
0.5927720844
 40
1.0
 40
1.0
 40
1.0
 40
1.0
 10
343.0163807162
 20
267.1001462242
 30
0.0
 10
342.9687049125
 20
267.1032383126
 30
0.0
 10
342.8989562592
 20
267.1769864982
 30
0.0
 10
342.8421549226
 20
267.2953666468
 30
0.0
 10
342.7684334379
 20
267.5062332218
 30
0.0
 10
342.6951177231
 20
267.8624264997
 30
0.0
 10
342.5880621006
 20
268.6645141671
 30
0.0
 10
342.5123014821
 20
269.9861113817
 30
0.0
 10
342.4951765068
 20
271.1281261029
 30
0.0
 10
342.4951765068
 20
271.7762949534
 30
0.0
  0
LINE
  5
3DB
100
AcDbEntity
  8
SURFACES
100
AcDbLine
 62
3
  6
CONTINUOUS
 10
217.5812475133
 20
35.6500288393
 11
289.5937748853
 21
62.5345717692
  0
LINE
  5
3DC
100
AcDbEntity
  8
SURFACES
100
AcDbLine
 62
3
  6
CONTINUOUS
 10
291.3681799931
 20
63.5573962152
 11
338.0077284287
 21
105.0677441615
  0
SPLINE
  5
3DD
100
AcDbEntity
  8
0
100
AcDbSpline
 62
3
  6
CONTINUOUS
 70
0
 71
3
 72
14
 73
10
 74
0
 42
0.0000001
 43
0.0000001
 44
0.0000000001
 40
0.0
 40
0.0
 40
0.0
 40
0.0
 40
0.0300164201
 40
0.0539053147
 40
0.0848882307
 40
0.1689679114
 40
0.282499643
 40
0.5927720844
 40
1.0
 40
1.0
 40
1.0
 40
1.0
 10
343.0163807162
 20
325.9345789043
 30
0.0
 10
342.9687049125
 20
325.9376709927
 30
0.0
 10
342.8989562592
 20
326.0114191783
 30
0.0
 10
342.8421549226
 20
326.1297993269
 30
0.0
 10
342.7684334379
 20
326.3406659019
 30
0.0
 10
342.6951177231
 20
326.6968591798
 30
0.0
 10
342.5880621006
 20
327.4989468472
 30
0.0
 10
342.5123014821
 20
328.8205440618
 30
0.0
 10
342.4951765068
 20
329.9625587831
 30
0.0
 10
342.4951765068
 20
330.6107276335
 30
0.0
  0
LINE
  5
3DE
100
AcDbEntity
  8
SURFACES
100
AcDbLine
 62
3
  6
CONTINUOUS
 10
338.9335894418
 20
106.5587298789
 11
348.531989879
 21
155.42268709
  0
SPLINE
  5
3DF
100
AcDbEntity
  8
0
100
AcDbSpline
 62
3
  6
CONTINUOUS
 70
0
 71
3
 72
14
 73
10
 74
0
 42
0.0000001
 43
0.0000001
 44
0.0000000001
 40
0.0
 40
0.0
 40
0.0
 40
0.0
 40
0.0300164201
 40
0.0539053147
 40
0.0848882307
 40
0.1689679114
 40
0.282499643
 40
0.5927720844
 40
1.0
 40
1.0
 40
1.0
 40
1.0
 10
343.0163807162
 20
384.7690115844
 30
0.0
 10
342.9687049125
 20
384.7721036729
 30
0.0
 10
342.8989562592
 20
384.8458518584
 30
0.0
 10
342.8421549226
 20
384.9642320071
 30
0.0
 10
342.7684334379
 20
385.1750985821
 30
0.0
 10
342.6951177231
 20
385.5312918599
 30
0.0
 10
342.5880621006
 20
386.3333795273
 30
0.0
 10
342.5123014821
 20
387.6549767419
 30
0.0
 10
342.4951765068
 20
388.7969914632
 30
0.0
 10
342.4951765068
 20
389.4451603136
 30
0.0
  0
LINE
  5
3E0
100
AcDbEntity
  8
SURFACES
100
AcDbLine
 62
3
  6
CONTINUOUS
 10
347.9451709081
 20
451.5208450073
 11
310.3072011561
 21
495.2601417333
  0
LINE
  5
3E1
100
AcDbEntity
  8
SURFACES
100
AcDbLine
 62
3
  6
CONTINUOUS
 10
307.5982877687
 20
496.8216469515
 11
231.7189598771
 21
518.5173890316
  0
LINE
  5
3E2
100
AcDbEntity
  8
0
100
AcDbLine
 62
3
  6
CONTINUOUS
 10
228.3777271552
 20
518.8556504502
 11
174.0027467188
 21
515.306650577
  0
ARC
  5
3E3
100
AcDbEntity
  8
0
100
AcDbCircle
 62
3
  6
CONTINUOUS
 10
168.1166122554
 20
60.9957664222
 40
7.3154590394
100
AcDbArc
 50
179.9950931879
 51
191.0837222388
  0
ARC
  5
3E4
100
AcDbEntity
  8
0
100
AcDbCircle
 62
3
  6
CONTINUOUS
 10
168.1166122554
 20
119.8301991023
 40
7.3154590394
100
AcDbArc
 50
179.9950931879
 51
191.0837222388
  0
ARC
  5
3E5
100
AcDbEntity
  8
0
100
AcDbCircle
 62
3
  6
CONTINUOUS
 10
168.1166122554
 20
178.6646317824
 40
7.3154590394
100
AcDbArc
 50
179.9950931879
 51
191.0837222388
  0
ARC
  5
3E6
100
AcDbEntity
  8
0
100
AcDbCircle
 62
3
  6
CONTINUOUS
 10
168.1166122554
 20
237.4990644625
 40
7.3154590394
100
AcDbArc
 50
179.9950931879
 51
191.0837222388
  0
SPLINE
  5
3E7
100
AcDbEntity
  8
SURFACES
100
AcDbSpline
 62
3
  6
CONTINUOUS
 70
0
 71
3
 72
9
 73
5
 74
0
 42
0.0000001
 43
0.0000001
 44
0.0000000001
 40
0.0
 40
0.0
 40
0.0
 40
0.0
 40
0.2425619316
 40
1.0
 40
1.0
 40
1.0
 40
1.0
 10
231.7189598771
 20
518.5173890316
 30
0.0
 10
231.4571713645
 20
518.5922407232
 30
0.0
 10
230.3633666735
 20
518.8483842462
 30
0.0
 10
229.2261570707
 20
518.911026611
 30
0.0
 10
228.3777271552
 20
518.8556504502
 30
0.0
  0
SPLINE
  5
3E8
100
AcDbEntity
  8
SURFACES
100
AcDbSpline
 62
3
  6
CONTINUOUS
 70
0
 71
3
 72
9
 73
5
 74
0
 42
0.0000001
 43
0.0000001
 44
0.0000000001
 40
0.0
 40
0.0
 40
0.0
 40
0.0
 40
0.4597394102
 40
1.0
 40
1.0
 40
1.0
 40
1.0
 10
310.3072011561
 20
495.2601417333
 30
0.0
 10
309.9915138765
 20
495.6270036996
 30
0.0
 10
309.132937976
 20
496.2760386141
 30
0.0
 10
308.1451322107
 20
496.665290849
 30
0.0
 10
307.5982877687
 20
496.8216469515
 30
0.0
  0
ARC
  5
3E9
100
AcDbEntity
  8
0
100
AcDbCircle
 62
3
  6
CONTINUOUS
 10
168.1166122554
 20
296.3334971427
 40
7.3154590394
100
AcDbArc
 50
179.9950931879
 51
191.0837222388
  0
SPLINE
  5
3EA
100
AcDbEntity
  8
SURFACES
100
AcDbSpline
 62
3
  6
CONTINUOUS
 70
0
 71
3
 72
9
 73
5
 74
0
 42
0.0000001
 43
0.0000001
 44
0.0000000001
 40
0.0
 40
0.0
 40
0.0
 40
0.0
 40
0.4706772959
 40
1.0
 40
1.0
 40
1.0
 40
1.0
 10
338.9335894418
 20
106.5587298789
 30
0.0
 10
338.8798048124
 20
106.2849207323
 30
0.0
 10
338.6433033715
 20
105.7245714182
 30
0.0
 10
338.242140432
 20
105.2763766236
 30
0.0
 10
338.0077284287
 20
105.0677441615
 30
0.0
  0
SPLINE
  5
3EB
100
AcDbEntity
  8
SURFACES
100
AcDbSpline
 62
3
  6
CONTINUOUS
 70
0
 71
3
 72
9
 73
5
 74
0
 42
0.0000001
 43
0.0000001
 44
0.0000000001
 40
0.0
 40
0.0
 40
0.0
 40
0.0
 40
0.2305435234
 40
1.0
 40
1.0
 40
1.0
 40
1.0
 10
291.3681799931
 20
63.5573962152
 30
0.0
 10
291.2502207017
 20
63.4524095378
 30
0.0
 10
290.711623447
 20
63.0272994902
 30
0.0
 10
290.0875351282
 20
62.718908008
 30
0.0
 10
289.5937748853
 20
62.5345717692
 30
0.0
  0
SPLINE
  5
3EC
100
AcDbEntity
  8
SURFACES
100
AcDbSpline
 62
3
  6
CONTINUOUS
 70
0
 71
3
 72
9
 73
5
 74
0
 42
0.0000001
 43
0.0000001
 44
0.0000000001
 40
0.0
 40
0.0
 40
0.0
 40
0.0
 40
0.2394139963
 40
1.0
 40
1.0
 40
1.0
 40
1.0
 10
217.5812475133
 20
35.6500288393
 30
0.0
 10
217.3833917109
 20
35.5761630411
 30
0.0
 10
216.5440658412
 20
35.3026714661
 30
0.0
 10
215.6641835861
 20
35.1600309742
 30
0.0
 10
214.9946719943
 20
35.1163326311
 30
0.0
  0
SPLINE
  5
3ED
100
AcDbEntity
  8
0
100
AcDbSpline
 62
3
  6
CONTINUOUS
 70
0
 71
3
 72
17
 73
13
 74
0
 42
0.0000001
 43
0.0000001
 44
0.0000000001
 40
0.0
 40
0.0
 40
0.0
 40
0.0
 40
0.0347661353
 40
0.072174389
 40
0.114192576
 40
0.1619194164
 40
0.2752713323
 40
0.410068992
 40
0.5593334091
 40
0.7138940908
 40
0.8638726927
 40
1.0
 40
1.0
 40
1.0
 40
1.0
 10
318.5352272824
 20
124.0350460712
 30
0.0
 10
318.316752539
 20
124.1166088144
 30
0.0
 10
317.8321678666
 20
124.2109991485
 30
0.0
 10
317.0619042997
 20
124.1258188552
 30
0.0
 10
316.2549491041
 20
123.8302890566
 30
0.0
 10
315.0799745493
 20
123.1293287404
 30
0.0
 10
313.6263469232
 20
121.7472441534
 30
0.0
 10
312.0539288067
 20
119.5839084596
 30
0.0
 10
310.6737349371
 20
116.9752375437
 30
0.0
 10
309.5936728363
 20
114.1209503567
 30
0.0
 10
308.8966607892
 20
111.2409443873
 30
0.0
 10
308.7082859391
 20
109.3208445409
 30
0.0
 10
308.7082859391
 20
108.4077343455
 30
0.0
  0
SPLINE
  5
3EE
100
AcDbEntity
  8
0
100
AcDbSpline
 62
3
  6
CONTINUOUS
 70
0
 71
3
 72
17
 73
13
 74
0
 42
0.0000001
 43
0.0000001
 44
0.0000000001
 40
0.0
 40
0.0
 40
0.0
 40
0.0
 40
0.0347661353
 40
0.072174389
 40
0.114192576
 40
0.1619194164
 40
0.2752713323
 40
0.410068992
 40
0.5593334091
 40
0.7138940908
 40
0.8638726927
 40
1.0
 40
1.0
 40
1.0
 40
1.0
 10
318.5352272824
 20
182.8694787514
 30
0.0
 10
318.316752539
 20
182.9510414945
 30
0.0
 10
317.8321678666
 20
183.0454318287
 30
0.0
 10
317.0619042997
 20
182.9602515354
 30
0.0
 10
316.2549491041
 20
182.6647217368
 30
0.0
 10
315.0799745493
 20
181.9637614205
 30
0.0
 10
313.6263469232
 20
180.5816768335
 30
0.0
 10
312.0539288067
 20
178.4183411397
 30
0.0
 10
310.6737349371
 20
175.8096702238
 30
0.0
 10
309.5936728363
 20
172.9553830368
 30
0.0
 10
308.8966607892
 20
170.0753770675
 30
0.0
 10
308.7082859391
 20
168.155277221
 30
0.0
 10
308.7082859391
 20
167.2421670256
 30
0.0
  0
SPLINE
  5
3EF
100
AcDbEntity
  8
0
100
AcDbSpline
 62
3
  6
CONTINUOUS
 70
0
 71
3
 72
17
 73
13
 74
0
 42
0.0000001
 43
0.0000001
 44
0.0000000001
 40
0.0
 40
0.0
 40
0.0
 40
0.0
 40
0.0347661353
 40
0.072174389
 40
0.114192576
 40
0.1619194164
 40
0.2752713323
 40
0.410068992
 40
0.5593334091
 40
0.7138940908
 40
0.8638726927
 40
1.0
 40
1.0
 40
1.0
 40
1.0
 10
318.5352272824
 20
241.7039114315
 30
0.0
 10
318.316752539
 20
241.7854741747
 30
0.0
 10
317.8321678666
 20
241.8798645088
 30
0.0
 10
317.0619042997
 20
241.7946842155
 30
0.0
 10
316.2549491041
 20
241.4991544169
 30
0.0
 10
315.0799745493
 20
240.7981941006
 30
0.0
 10
313.6263469232
 20
239.4161095137
 30
0.0
 10
312.0539288067
 20
237.2527738199
 30
0.0
 10
310.6737349371
 20
234.644102904
 30
0.0
 10
309.5936728363
 20
231.7898157169
 30
0.0
 10
308.8966607892
 20
228.9098097476
 30
0.0
 10
308.7082859391
 20
226.9897099011
 30
0.0
 10
308.7082859391
 20
226.0765997057
 30
0.0
  0
SPLINE
  5
3F0
100
AcDbEntity
  8
0
100
AcDbSpline
 62
3
  6
CONTINUOUS
 70
0
 71
3
 72
17
 73
13
 74
0
 42
0.0000001
 43
0.0000001
 44
0.0000000001
 40
0.0
 40
0.0
 40
0.0
 40
0.0
 40
0.0347661353
 40
0.072174389
 40
0.114192576
 40
0.1619194164
 40
0.2752713323
 40
0.410068992
 40
0.5593334091
 40
0.7138940908
 40
0.8638726927
 40
1.0
 40
1.0
 40
1.0
 40
1.0
 10
318.5352272824
 20
300.5383441116
 30
0.0
 10
318.316752539
 20
300.6199068548
 30
0.0
 10
317.8321678666
 20
300.7142971889
 30
0.0
 10
317.0619042997
 20
300.6291168956
 30
0.0
 10
316.2549491041
 20
300.333587097
 30
0.0
 10
315.0799745493
 20
299.6326267808
 30
0.0
 10
313.6263469232
 20
298.2505421938
 30
0.0
 10
312.0539288067
 20
296.0872065
 30
0.0
 10
310.6737349371
 20
293.4785355841
 30
0.0
 10
309.5936728363
 20
290.6242483971
 30
0.0
 10
308.8966607892
 20
287.7442424277
 30
0.0
 10
308.7082859391
 20
285.8241425813
 30
0.0
 10
308.7082859391
 20
284.9110323858
 30
0.0
  0
SPLINE
  5
3F1
100
AcDbEntity
  8
0
100
AcDbSpline
 62
3
  6
CONTINUOUS
 70
0
 71
3
 72
11
 73
7
 74
0
 42
0.0000001
 43
0.0000001
 44
0.0000000001
 40
0.0
 40
0.0
 40
0.0
 40
0.0
 40
0.2270945955
 40
0.4718392431
 40
0.732518611
 40
1.0
 40
1.0
 40
1.0
 40
1.0
 10
191.9796128614
 20
457.3134524063
 30
0.0
 10
191.9288400684
 20
456.8754203031
 30
0.0
 10
191.6103443767
 20
455.9827309118
 30
0.0
 10
190.6414445862
 20
454.9026864467
 30
0.0
 10
189.3138580714
 20
454.1539240569
 30
0.0
 10
188.2942381999
 20
453.9321432459
 30
0.0
 10
187.775954377
 20
453.898315386
 30
0.0
  0
SPLINE
  5
3F2
100
AcDbEntity
  8
0
100
AcDbSpline
 62
3
  6
CONTINUOUS
 70
0
 71
3
 72
17
 73
13
 74
0
 42
0.0000001
 43
0.0000001
 44
0.0000000001
 40
0.0
 40
0.0
 40
0.0
 40
0.0
 40
0.0347661353
 40
0.072174389
 40
0.114192576
 40
0.1619194164
 40
0.2752713323
 40
0.410068992
 40
0.5593334091
 40
0.7138940908
 40
0.8638726927
 40
1.0
 40
1.0
 40
1.0
 40
1.0
 10
318.5352272824
 20
359.3727767918
 30
0.0
 10
318.316752539
 20
359.4543395349
 30
0.0
 10
317.8321678666
 20
359.5487298691
 30
0.0
 10
317.0619042997
 20
359.4635495757
 30
0.0
 10
316.2549491041
 20
359.1680197771
 30
0.0
 10
315.0799745493
 20
358.4670594609
 30
0.0
 10
313.6263469232
 20
357.0849748739
 30
0.0
 10
312.0539288067
 20
354.9216391801
 30
0.0
 10
310.6737349371
 20
352.3129682642
 30
0.0
 10
309.5936728363
 20
349.4586810772
 30
0.0
 10
308.8966607892
 20
346.5786751078
 30
0.0
 10
308.7082859391
 20
344.6585752614
 30
0.0
 10
308.7082859391
 20
343.745465066
 30
0.0
  0
SPLINE
  5
3F3
100
AcDbEntity
  8
0
100
AcDbSpline
 62
3
  6
CONTINUOUS
 70
0
 71
3
 72
12
 73
8
 74
0
 42
0.0000001
 43
0.0000001
 44
0.0000000001
 40
0.0
 40
0.0
 40
0.0
 40
0.0
 40
0.1114637147
 40
0.2254700657
 40
0.4663576171
 40
0.7280172703
 40
1.0
 40
1.0
 40
1.0
 40
1.0
 10
165.0769025386
 20
266.6488695548
 30
0.0
 10
165.0289183943
 20
266.893061856
 30
0.0
 10
164.9985743334
 20
267.4026446135
 30
0.0
 10
165.209506233
 20
268.4326289182
 30
0.0
 10
165.9873962975
 20
269.6309438106
 30
0.0
 10
167.4559926567
 20
270.6122486396
 30
0.0
 10
168.6412235952
 20
270.9014865639
 30
0.0
 10
169.2471830028
 20
270.9410369204
 30
0.0
  0
SPLINE
  5
3F4
100
AcDbEntity
  8
0
100
AcDbSpline
 62
3
  6
CONTINUOUS
 70
0
 71
3
 72
10
 73
6
 74
0
 42
0.0000001
 43
0.0000001
 44
0.0000000001
 40
0.0
 40
0.0
 40
0.0
 40
0.0
 40
0.2352601843
 40
0.4773464346
 40
1.0
 40
1.0
 40
1.0
 40
1.0
 10
246.2742030387
 20
70.2927394449
 30
0.0
 10
245.9650582657
 20
70.5679066783
 30
0.0
 10
245.4035179301
 20
71.2053003877
 30
0.0
 10
244.5729936554
 20
72.7700296489
 30
0.0
 10
244.3547668966
 20
74.1431921911
 30
0.0
 10
244.3547668966
 20
75.0626426124
 30
0.0
  0
SPLINE
  5
3F5
100
AcDbEntity
  8
0
100
AcDbSpline
 62
3
  6
CONTINUOUS
 70
0
 71
3
 72
12
 73
8
 74
0
 42
0.0000001
 43
0.0000001
 44
0.0000000001
 40
0.0
 40
0.0
 40
0.0
 40
0.0
 40
0.1114637147
 40
0.2254700657
 40
0.4663576171
 40
0.7280172703
 40
1.0
 40
1.0
 40
1.0
 40
1.0
 10
165.0769025386
 20
90.1455715144
 30
0.0
 10
165.0289183943
 20
90.3897638156
 30
0.0
 10
164.9985743334
 20
90.8993465731
 30
0.0
 10
165.209506233
 20
91.9293308778
 30
0.0
 10
165.9873962975
 20
93.1276457702
 30
0.0
 10
167.4559926567
 20
94.1089505992
 30
0.0
 10
168.6412235952
 20
94.3981885236
 30
0.0
 10
169.2471830028
 20
94.4377388801
 30
0.0
  0
SPLINE
  5
3F6
100
AcDbEntity
  8
0
100
AcDbSpline
 62
3
  6
CONTINUOUS
 70
0
 71
3
 72
10
 73
6
 74
0
 42
0.0000001
 43
0.0000001
 44
0.0000000001
 40
0.0
 40
0.0
 40
0.0
 40
0.0
 40
0.2352601843
 40
0.4773464346
 40
1.0
 40
1.0
 40
1.0
 40
1.0
 10
246.2742030387
 20
129.127172125
 30
0.0
 10
245.9650582657
 20
129.4023393585
 30
0.0
 10
245.4035179301
 20
130.0397330678
 30
0.0
 10
244.5729936554
 20
131.6044623291
 30
0.0
 10
244.3547668966
 20
132.9776248713
 30
0.0
 10
244.3547668966
 20
133.8970752926
 30
0.0
  0
SPLINE
  5
3F7
100
AcDbEntity
  8
0
100
AcDbSpline
 62
3
  6
CONTINUOUS
 70
0
 71
3
 72
10
 73
6
 74
0
 42
0.0000001
 43
0.0000001
 44
0.0000000001
 40
0.0
 40
0.0
 40
0.0
 40
0.0
 40
0.2352601843
 40
0.4773464346
 40
1.0
 40
1.0
 40
1.0
 40
1.0
 10
246.2742030387
 20
305.6304701654
 30
0.0
 10
245.9650582657
 20
305.9056373989
 30
0.0
 10
245.4035179301
 20
306.5430311082
 30
0.0
 10
244.5729936554
 20
308.1077603694
 30
0.0
 10
244.3547668966
 20
309.4809229117
 30
0.0
 10
244.3547668966
 20
310.4003733329
 30
0.0
  0
SPLINE
  5
3F8
100
AcDbEntity
  8
0
100
AcDbSpline
 62
3
  6
CONTINUOUS
 70
0
 71
3
 72
10
 73
6
 74
0
 42
0.0000001
 43
0.0000001
 44
0.0000000001
 40
0.0
 40
0.0
 40
0.0
 40
0.0
 40
0.2352601843
 40
0.4773464346
 40
1.0
 40
1.0
 40
1.0
 40
1.0
 10
246.2742030387
 20
187.9616048051
 30
0.0
 10
245.9650582657
 20
188.2367720386
 30
0.0
 10
245.4035179301
 20
188.8741657479
 30
0.0
 10
244.5729936554
 20
190.4388950092
 30
0.0
 10
244.3547668966
 20
191.8120575514
 30
0.0
 10
244.3547668966
 20
192.7315079727
 30
0.0
  0
SPLINE
  5
3F9
100
AcDbEntity
  8
0
100
AcDbSpline
 62
3
  6
CONTINUOUS
 70
0
 71
3
 72
10
 73
6
 74
0
 42
0.0000001
 43
0.0000001
 44
0.0000000001
 40
0.0
 40
0.0
 40
0.0
 40
0.0
 40
0.2352601843
 40
0.4773464346
 40
1.0
 40
1.0
 40
1.0
 40
1.0
 10
246.2742030387
 20
246.7960374853
 30
0.0
 10
245.9650582657
 20
247.0712047187
 30
0.0
 10
245.4035179301
 20
247.7085984281
 30
0.0
 10
244.5729936554
 20
249.2733276893
 30
0.0
 10
244.3547668966
 20
250.6464902315
 30
0.0
 10
244.3547668966
 20
251.5659406528
 30
0.0
  0
ARC
  5
3FA
100
AcDbEntity
  8
0
100
AcDbCircle
 62
3
  6
CONTINUOUS
 10
157.9645400028
 20
36.8097990296
 40
4.6553292087
100
AcDbArc
 50
179.9950727115
 51
191.084942217
  0
LINE
  5
3FB
100
AcDbEntity
  8
0
100
AcDbLine
 62
3
  6
CONTINUOUS
 10
153.3092108113
 20
36.8101993759
 11
153.3092108113
 21
319.5423341998
  0
SPLINE
  5
3FC
100
AcDbEntity
  8
0
100
AcDbSpline
 62
3
  6
CONTINUOUS
 70
0
 71
3
 72
14
 73
10
 74
0
 42
0.0000001
 43
0.0000001
 44
0.0000000001
 40
0.0
 40
0.0
 40
0.0
 40
0.0
 40
0.0300164201
 40
0.0539053147
 40
0.0848882307
 40
0.1689679114
 40
0.282499643
 40
0.5927720844
 40
1.0
 40
1.0
 40
1.0
 40
1.0
 10
344.4491986046
 20
171.3845687851
 30
0.0
 10
344.4968744083
 20
171.3814766967
 30
0.0
 10
344.5666230616
 20
171.3077285111
 30
0.0
 10
344.6234243982
 20
171.1893483625
 30
0.0
 10
344.6971458829
 20
170.9784817875
 30
0.0
 10
344.7704615977
 20
170.6222885096
 30
0.0
 10
344.8775172202
 20
169.8202008422
 30
0.0
 10
344.9532778387
 20
168.4986036276
 30
0.0
 10
344.970402814
 20
167.3565889063
 30
0.0
 10
344.970402814
 20
166.7084200559
 30
0.0
  0
SPLINE
  5
3FD
100
AcDbEntity
  8
0
100
AcDbSpline
 62
3
  6
CONTINUOUS
 70
0
 71
3
 72
19
 73
15
 74
0
 42
0.0000001
 43
0.0000001
 44
0.0000000001
 40
0.0
 40
0.0
 40
0.0
 40
0.0
 40
0.1520086152
 40
0.3196140429
 40
0.4904718341
 40
0.6519900661
 40
0.7922926994
 40
0.851208811
 40
0.9011691619
 40
0.9413123291
 40
0.971030881
 40
0.9819078863
 40
0.9901834455
 40
1.0
 40
1.0
 40
1.0
 40
1.0
 10
344.970402814
 20
225.542852736
 30
0.0
 10
344.970402814
 20
224.6553236895
 30
0.0
 10
344.9340413967
 20
222.7891704907
 30
0.0
 10
344.8007709956
 20
219.9283104914
 30
0.0
 10
344.5935015878
 20
217.0161247919
 30
0.0
 10
344.3275277079
 20
214.2688630296
 30
0.0
 10
344.0624084715
 20
212.1788740347
 30
0.0
 10
343.8287630092
 20
210.7426195676
 30
0.0
 10
343.6638442452
 20
209.888388504
 30
0.0
 10
343.5004218038
 20
209.2070826723
 30
0.0
 10
343.3628384586
 20
208.757389067
 30
0.0
 10
343.2455921094
 20
208.4932477254
 30
0.0
 10
343.1649406564
 20
208.3521981704
 30
0.0
 10
343.0735762303
 20
208.26200404
 30
0.0
 10
343.0163807162
 20
208.265713544
 30
0.0
  0
SPLINE
  5
3FE
100
AcDbEntity
  8
0
100
AcDbSpline
 62
3
  6
CONTINUOUS
 70
0
 71
3
 72
11
 73
7
 74
0
 42
0.0000001
 43
0.0000001
 44
0.0000000001
 40
0.0
 40
0.0
 40
0.0
 40
0.0
 40
0.2731894807
 40
0.5317255877
 40
0.7721907297
 40
1.0
 40
1.0
 40
1.0
 40
1.0
 10
169.2471830028
 20
263.9953052846
 30
0.0
 10
168.7597596825
 20
263.9634916584
 30
0.0
 10
167.7955369736
 20
264.0359242805
 30
0.0
 10
166.4925046399
 20
264.5613075904
 30
0.0
 10
165.5066363739
 20
265.4553237864
 30
0.0
 10
165.1554398015
 20
266.249191802
 30
0.0
 10
165.0769025386
 20
266.6488695548
 30
0.0
  0
LINE
  5
3FF
100
AcDbEntity
  8
0
100
AcDbLine
 62
3
  6
CONTINUOUS
 10
160.2647647313
 20
325.7163304442
 11
214.9946719943
 21
329.2884960317
  0
SPLINE
  5
400
100
AcDbEntity
  8
0
100
AcDbSpline
 62
3
  6
CONTINUOUS
 70
0
 71
3
 72
14
 73
10
 74
0
 42
0.0000001
 43
0.0000001
 44
0.0000000001
 40
0.0
 40
0.0
 40
0.0
 40
0.0
 40
0.0300164201
 40
0.0539053147
 40
0.0848882307
 40
0.1689679114
 40
0.282499643
 40
0.5927720844
 40
1.0
 40
1.0
 40
1.0
 40
1.0
 10
344.4491986046
 20
230.2190014652
 30
0.0
 10
344.4968744083
 20
230.2159093768
 30
0.0
 10
344.5666230616
 20
230.1421611912
 30
0.0
 10
344.6234243982
 20
230.0237810426
 30
0.0
 10
344.6971458829
 20
229.8129144676
 30
0.0
 10
344.7704615977
 20
229.4567211897
 30
0.0
 10
344.8775172202
 20
228.6546335223
 30
0.0
 10
344.9532778387
 20
227.3330363077
 30
0.0
 10
344.970402814
 20
226.1910215865
 30
0.0
 10
344.970402814
 20
225.542852736
 30
0.0
  0
LINE
  5
401
100
AcDbEntity
  8
0
100
AcDbLine
 62
3
  6
CONTINUOUS
 10
174.2154358028
 20
264.3195781104
 11
169.2471830028
 21
263.9953052846
  0
LINE
  5
402
100
AcDbEntity
  8
0
100
AcDbLine
 62
3
  6
CONTINUOUS
 10
174.2154358028
 20
87.81628007
 11
169.2471830028
 21
87.4920072442
  0
SPLINE
  5
403
100
AcDbEntity
  8
0
100
AcDbSpline
 62
3
  6
CONTINUOUS
 70
0
 71
3
 72
19
 73
15
 74
0
 42
0.0000001
 43
0.0000001
 44
0.0000000001
 40
0.0
 40
0.0
 40
0.0
 40
0.0
 40
0.1520086152
 40
0.3196140429
 40
0.4904718341
 40
0.6519900661
 40
0.7922926994
 40
0.851208811
 40
0.9011691619
 40
0.9413123291
 40
0.971030881
 40
0.9819078863
 40
0.9901834455
 40
1.0
 40
1.0
 40
1.0
 40
1.0
 10
344.970402814
 20
166.7084200559
 30
0.0
 10
344.970402814
 20
165.8208910093
 30
0.0
 10
344.9340413967
 20
163.9547378106
 30
0.0
 10
344.8007709956
 20
161.0938778113
 30
0.0
 10
344.5935015878
 20
158.1816921118
 30
0.0
 10
344.3275277079
 20
155.4344303495
 30
0.0
 10
344.0624084715
 20
153.3444413545
 30
0.0
 10
343.8287630092
 20
151.9081868875
 30
0.0
 10
343.6638442452
 20
151.0539558238
 30
0.0
 10
343.5004218038
 20
150.3726499922
 30
0.0
 10
343.3628384586
 20
149.9229563869
 30
0.0
 10
343.2455921094
 20
149.6588150452
 30
0.0
 10
343.1649406564
 20
149.5177654903
 30
0.0
 10
343.0735762303
 20
149.4275713598
 30
0.0
 10
343.0163807162
 20
149.4312808639
 30
0.0
  0
LINE
  5
404
100
AcDbEntity
  8
SURFACES
100
AcDbLine
 62
3
  6
CONTINUOUS
 10
217.5812475133
 20
329.8221922399
 11
289.5937748853
 21
356.7067351698
  0
LINE
  5
405
100
AcDbEntity
  8
SURFACES
100
AcDbLine
 62
9
  6
CONTINUOUS
 10
338.0077284287
 20
399.2399075622
 11
338.0077284287
 21
105.0677441615
  0
SPLINE
  5
406
100
AcDbEntity
  8
0
100
AcDbSpline
 62
3
  6
CONTINUOUS
 70
0
 71
3
 72
14
 73
10
 74
0
 42
0.0000001
 43
0.0000001
 44
0.0000000001
 40
0.0
 40
0.0
 40
0.0
 40
0.0
 40
0.0300164201
 40
0.0539053147
 40
0.0848882307
 40
0.1689679114
 40
0.282499643
 40
0.5927720844
 40
1.0
 40
1.0
 40
1.0
 40
1.0
 10
344.4491986046
 20
289.0534341454
 30
0.0
 10
344.4968744083
 20
289.0503420569
 30
0.0
 10
344.5666230616
 20
288.9765938714
 30
0.0
 10
344.6234243982
 20
288.8582137227
 30
0.0
 10
344.6971458829
 20
288.6473471477
 30
0.0
 10
344.7704615977
 20
288.2911538699
 30
0.0
 10
344.8775172202
 20
287.4890662025
 30
0.0
 10
344.9532778387
 20
286.1674689879
 30
0.0
 10
344.970402814
 20
285.0254542666
 30
0.0
 10
344.970402814
 20
284.3772854162
 30
0.0
  0
SPLINE
  5
407
100
AcDbEntity
  8
0
100
AcDbSpline
 62
3
  6
CONTINUOUS
 70
0
 71
3
 72
11
 73
7
 74
0
 42
0.0000001
 43
0.0000001
 44
0.0000000001
 40
0.0
 40
0.0
 40
0.0
 40
0.0
 40
0.2731894807
 40
0.5317255877
 40
0.7721907297
 40
1.0
 40
1.0
 40
1.0
 40
1.0
 10
169.2471830028
 20
87.4920072442
 30
0.0
 10
168.7597596825
 20
87.460193618
 30
0.0
 10
167.7955369736
 20
87.5326262401
 30
0.0
 10
166.4925046399
 20
88.05800955
 30
0.0
 10
165.5066363739
 20
88.952025746
 30
0.0
 10
165.1554398015
 20
89.7458937616
 30
0.0
 10
165.0769025386
 20
90.1455715144
 30
0.0
  0
LINE
  5
408
100
AcDbEntity
  8
SURFACES
100
AcDbLine
 62
3
  6
CONTINUOUS
 10
291.3681799931
 20
357.7295596159
 11
338.0077284287
 21
399.2399075622
  0
LINE
  5
409
100
AcDbEntity
  8
SURFACES
100
AcDbLine
 62
9
  6
CONTINUOUS
 10
291.3681799931
 20
357.7295596159
 11
291.3681799931
 21
63.5573962152
  0
SPLINE
  5
40A
100
AcDbEntity
  8
0
100
AcDbSpline
 62
3
  6
CONTINUOUS
 70
0
 71
3
 72
18
 73
14
 74
0
 42
0.0000001
 43
0.0000001
 44
0.0000000001
 40
0.0
 40
0.0
 40
0.0
 40
0.0
 40
0.0565639455
 40
0.1147724225
 40
0.237412371
 40
0.3689060937
 40
0.5051929008
 40
0.6401356089
 40
0.7681609224
 40
0.8289158634
 40
0.8874303771
 40
0.9441963597
 40
1.0
 40
1.0
 40
1.0
 40
1.0
 10
182.6614655628
 20
297.7609240721
 30
0.0
 10
182.6614655628
 20
297.1977924071
 30
0.0
 10
182.5291165496
 20
296.0513448181
 30
0.0
 10
181.7527387734
 20
293.8026310907
 30
0.0
 10
179.8433625089
 20
291.2450823845
 30
0.0
 10
176.5470678156
 20
289.0660168365
 30
0.0
 10
172.6344308561
 20
287.9440477699
 30
0.0
 10
168.6008584
 20
288.0157700169
 30
0.0
 10
165.4923212403
 20
289.105016363
 30
0.0
 10
163.4743261253
 20
290.5394914658
 30
0.0
 10
162.2676045161
 20
291.8284060706
 30
0.0
 10
161.3896181114
 20
293.303452168
 30
0.0
 10
161.0447040429
 20
294.3820083314
 30
0.0
 10
160.9376061326
 20
294.927150085
 30
0.0
  0
SPLINE
  5
40B
100
AcDbEntity
  8
0
100
AcDbSpline
 62
3
  6
CONTINUOUS
 70
0
 71
3
 72
12
 73
8
 74
0
 42
0.0000001
 43
0.0000001
 44
0.0000000001
 40
0.0
 40
0.0
 40
0.0
 40
0.0
 40
0.3185843985
 40
0.5872750246
 40
0.8085580559
 40
0.9064403698
 40
1.0
 40
1.0
 40
1.0
 40
1.0
 10
320.6676224827
 20
354.389569432
 30
0.0
 10
320.6676224827
 20
354.9973465613
 30
0.0
 10
320.5935248254
 20
356.1212440783
 30
0.0
 10
320.205680246
 20
357.6249937981
 30
0.0
 10
319.6261921266
 20
358.6152883873
 30
0.0
 10
319.0298204056
 20
359.1389669753
 30
0.0
 10
318.7024422812
 20
359.3103507475
 30
0.0
 10
318.5352272824
 20
359.3727767918
 30
0.0
  0
SPLINE
  5
40C
100
AcDbEntity
  8
0
100
AcDbSpline
 62
3
  6
CONTINUOUS
 70
0
 71
3
 72
18
 73
14
 74
0
 42
0.0000001
 43
0.0000001
 44
0.0000000001
 40
0.0
 40
0.0
 40
0.0
 40
0.0
 40
0.0565639455
 40
0.1147724225
 40
0.237412371
 40
0.3689060937
 40
0.5051929008
 40
0.6401356089
 40
0.7681609224
 40
0.8289158634
 40
0.8874303771
 40
0.9441963597
 40
1.0
 40
1.0
 40
1.0
 40
1.0
 10
182.6614655628
 20
238.926491392
 30
0.0
 10
182.6614655628
 20
238.363359727
 30
0.0
 10
182.5291165496
 20
237.2169121379
 30
0.0
 10
181.7527387734
 20
234.9681984106
 30
0.0
 10
179.8433625089
 20
232.4106497044
 30
0.0
 10
176.5470678156
 20
230.2315841564
 30
0.0
 10
172.6344308561
 20
229.1096150898
 30
0.0
 10
168.6008584
 20
229.1813373368
 30
0.0
 10
165.4923212403
 20
230.2705836829
 30
0.0
 10
163.4743261253
 20
231.7050587857
 30
0.0
 10
162.2676045161
 20
232.9939733905
 30
0.0
 10
161.3896181114
 20
234.4690194879
 30
0.0
 10
161.0447040429
 20
235.5475756512
 30
0.0
 10
160.9376061326
 20
236.0927174049
 30
0.0
  0
LINE
  5
40D
100
AcDbEntity
  8
SURFACES
100
AcDbLine
 62
3
  6
CONTINUOUS
 10
338.9335894418
 20
400.7308932796
 11
348.531989879
 21
449.5948504906
  0
SPLINE
  5
40E
100
AcDbEntity
  8
0
100
AcDbSpline
 62
3
  6
CONTINUOUS
 70
0
 71
3
 72
14
 73
10
 74
0
 42
0.0000001
 43
0.0000001
 44
0.0000000001
 40
0.0
 40
0.0
 40
0.0
 40
0.0
 40
0.0300164201
 40
0.0539053147
 40
0.0848882307
 40
0.1689679114
 40
0.282499643
 40
0.5927720844
 40
1.0
 40
1.0
 40
1.0
 40
1.0
 10
344.4491986046
 20
347.8878668255
 30
0.0
 10
344.4968744083
 20
347.8847747371
 30
0.0
 10
344.5666230616
 20
347.8110265515
 30
0.0
 10
344.6234243982
 20
347.6926464028
 30
0.0
 10
344.6971458829
 20
347.4817798278
 30
0.0
 10
344.7704615977
 20
347.12558655
 30
0.0
 10
344.8775172202
 20
346.3234988826
 30
0.0
 10
344.9532778387
 20
345.001901668
 30
0.0
 10
344.970402814
 20
343.8598869467
 30
0.0
 10
344.970402814
 20
343.2117180963
 30
0.0
  0
SPLINE
  5
40F
100
AcDbEntity
  8
0
100
AcDbSpline
 62
3
  6
CONTINUOUS
 70
0
 71
3
 72
18
 73
14
 74
0
 42
0.0000001
 43
0.0000001
 44
0.0000000001
 40
0.0
 40
0.0
 40
0.0
 40
0.0
 40
0.0565639455
 40
0.1147724225
 40
0.237412371
 40
0.3689060937
 40
0.5051929008
 40
0.6401356089
 40
0.7681609224
 40
0.8289158634
 40
0.8874303771
 40
0.9441963597
 40
1.0
 40
1.0
 40
1.0
 40
1.0
 10
182.6614655628
 20
180.0920587119
 30
0.0
 10
182.6614655628
 20
179.5289270469
 30
0.0
 10
182.5291165496
 20
178.3824794578
 30
0.0
 10
181.7527387734
 20
176.1337657304
 30
0.0
 10
179.8433625089
 20
173.5762170243
 30
0.0
 10
176.5470678156
 20
171.3971514763
 30
0.0
 10
172.6344308561
 20
170.2751824096
 30
0.0
 10
168.6008584
 20
170.3469046567
 30
0.0
 10
165.4923212403
 20
171.4361510028
 30
0.0
 10
163.4743261253
 20
172.8706261056
 30
0.0
 10
162.2676045161
 20
174.1595407104
 30
0.0
 10
161.3896181114
 20
175.6345868078
 30
0.0
 10
161.0447040429
 20
176.7131429711
 30
0.0
 10
160.9376061326
 20
177.2582847248
 30
0.0
  0
SPLINE
  5
410
100
AcDbEntity
  8
0
100
AcDbSpline
 62
3
  6
CONTINUOUS
 70
0
 71
3
 72
12
 73
8
 74
0
 42
0.0000001
 43
0.0000001
 44
0.0000000001
 40
0.0
 40
0.0
 40
0.0
 40
0.0
 40
0.3185843985
 40
0.5872750246
 40
0.8085580559
 40
0.9064403698
 40
1.0
 40
1.0
 40
1.0
 40
1.0
 10
320.6676224827
 20
295.5551367519
 30
0.0
 10
320.6676224827
 20
296.1629138811
 30
0.0
 10
320.5935248254
 20
297.2868113982
 30
0.0
 10
320.205680246
 20
298.7905611179
 30
0.0
 10
319.6261921266
 20
299.7808557072
 30
0.0
 10
319.0298204056
 20
300.3045342952
 30
0.0
 10
318.7024422812
 20
300.4759180674
 30
0.0
 10
318.5352272824
 20
300.5383441116
 30
0.0
  0
SPLINE
  5
411
100
AcDbEntity
  8
0
100
AcDbSpline
 62
3
  6
CONTINUOUS
 70
0
 71
3
 72
18
 73
14
 74
0
 42
0.0000001
 43
0.0000001
 44
0.0000000001
 40
0.0
 40
0.0
 40
0.0
 40
0.0
 40
0.0565639455
 40
0.1147724225
 40
0.237412371
 40
0.3689060937
 40
0.5051929008
 40
0.6401356089
 40
0.7681609224
 40
0.8289158634
 40
0.8874303771
 40
0.9441963597
 40
1.0
 40
1.0
 40
1.0
 40
1.0
 10
182.6614655628
 20
121.2576260318
 30
0.0
 10
182.6614655628
 20
120.6944943668
 30
0.0
 10
182.5291165496
 20
119.5480467777
 30
0.0
 10
181.7527387734
 20
117.2993330503
 30
0.0
 10
179.8433625089
 20
114.7417843441
 30
0.0
 10
176.5470678156
 20
112.5627187961
 30
0.0
 10
172.6344308561
 20
111.4407497295
 30
0.0
 10
168.6008584
 20
111.5124719766
 30
0.0
 10
165.4923212403
 20
112.6017183226
 30
0.0
 10
163.4743261253
 20
114.0361934254
 30
0.0
 10
162.2676045161
 20
115.3251080303
 30
0.0
 10
161.3896181114
 20
116.8001541276
 30
0.0
 10
161.0447040429
 20
117.878710291
 30
0.0
 10
160.9376061326
 20
118.4238520446
 30
0.0
  0
SPLINE
  5
412
100
AcDbEntity
  8
0
100
AcDbSpline
 62
3
  6
CONTINUOUS
 70
0
 71
3
 72
14
 73
10
 74
0
 42
0.0000001
 43
0.0000001
 44
0.0000000001
 40
0.0
 40
0.0
 40
0.0
 40
0.0
 40
0.0300164201
 40
0.0539053147
 40
0.0848882307
 40
0.1689679114
 40
0.282499643
 40
0.5927720844
 40
1.0
 40
1.0
 40
1.0
 40
1.0
 10
344.4491986046
 20
406.7222995056
 30
0.0
 10
344.4968744083
 20
406.7192074172
 30
0.0
 10
344.5666230616
 20
406.6454592316
 30
0.0
 10
344.6234243982
 20
406.527079083
 30
0.0
 10
344.6971458829
 20
406.316212508
 30
0.0
 10
344.7704615977
 20
405.9600192301
 30
0.0
 10
344.8775172202
 20
405.1579315627
 30
0.0
 10
344.9532778387
 20
403.8363343481
 30
0.0
 10
344.970402814
 20
402.6943196268
 30
0.0
 10
344.970402814
 20
402.0461507764
 30
0.0
  0
LINE
  5
413
100
AcDbEntity
  8
SURFACES
100
AcDbLine
 62
9
  6
CONTINUOUS
 10
348.531989879
 20
449.5948504906
 11
348.531989879
 21
155.8118144809
  0
LINE
  5
414
100
AcDbEntity
  8
SURFACES
100
AcDbLine
 62
9
  6
CONTINUOUS
 10
348.531989879
 20
155.8118144809
 11
348.531989879
 21
155.42268709
  0
SPLINE
  5
415
100
AcDbEntity
  8
0
100
AcDbSpline
 62
3
  6
CONTINUOUS
 70
0
 71
3
 72
18
 73
14
 74
0
 42
0.0000001
 43
0.0000001
 44
0.0000000001
 40
0.0
 40
0.0
 40
0.0
 40
0.0
 40
0.0565639455
 40
0.1147724225
 40
0.237412371
 40
0.3689060937
 40
0.5051929008
 40
0.6401356089
 40
0.7681609224
 40
0.8289158634
 40
0.8874303771
 40
0.9441963597
 40
1.0
 40
1.0
 40
1.0
 40
1.0
 10
182.6614655628
 20
62.4231933516
 30
0.0
 10
182.6614655628
 20
61.8600616866
 30
0.0
 10
182.5291165496
 20
60.7136140975
 30
0.0
 10
181.7527387734
 20
58.4649003702
 30
0.0
 10
179.8433625089
 20
55.907351664
 30
0.0
 10
176.5470678156
 20
53.728286116
 30
0.0
 10
172.6344308561
 20
52.6063170494
 30
0.0
 10
168.6008584
 20
52.6780392964
 30
0.0
 10
165.4923212403
 20
53.7672856425
 30
0.0
 10
163.4743261253
 20
55.2017607453
 30
0.0
 10
162.2676045161
 20
56.4906753501
 30
0.0
 10
161.3896181114
 20
57.9657214475
 30
0.0
 10
161.0447040429
 20
59.0442776108
 30
0.0
 10
160.9376061326
 20
59.5894193645
 30
0.0
  0
SPLINE
  5
416
100
AcDbEntity
  8
0
100
AcDbSpline
 62
3
  6
CONTINUOUS
 70
0
 71
3
 72
12
 73
8
 74
0
 42
0.0000001
 43
0.0000001
 44
0.0000000001
 40
0.0
 40
0.0
 40
0.0
 40
0.0
 40
0.3185843985
 40
0.5872750246
 40
0.8085580559
 40
0.9064403698
 40
1.0
 40
1.0
 40
1.0
 40
1.0
 10
320.6676224827
 20
236.7207040717
 30
0.0
 10
320.6676224827
 20
237.328481201
 30
0.0
 10
320.5935248254
 20
238.4523787181
 30
0.0
 10
320.205680246
 20
239.9561284378
 30
0.0
 10
319.6261921266
 20
240.946423027
 30
0.0
 10
319.0298204056
 20
241.4701016151
 30
0.0
 10
318.7024422812
 20
241.6414853873
 30
0.0
 10
318.5352272824
 20
241.7039114315
 30
0.0
  0
ARC
  5
417
100
AcDbEntity
  8
0
100
AcDbCircle
 62
3
  6
CONTINUOUS
 10
175.3460065502
 20
62.4238198477
 40
7.3154590394
100
AcDbArc
 50
359.9950931879
 51
11.0837222388
  0
LINE
  5
418
100
AcDbEntity
  8
SURFACES
100
AcDbLine
 62
9
  6
CONTINUOUS
 10
338.9335894418
 20
400.7308932796
 11
338.9335894418
 21
106.5587298789
  0
SPLINE
  5
419
100
AcDbEntity
  8
0
100
AcDbSpline
 62
3
  6
CONTINUOUS
 70
0
 71
3
 72
12
 73
8
 74
0
 42
0.0000001
 43
0.0000001
 44
0.0000000001
 40
0.0
 40
0.0
 40
0.0
 40
0.0
 40
0.3185843985
 40
0.5872750246
 40
0.8085580559
 40
0.9064403698
 40
1.0
 40
1.0
 40
1.0
 40
1.0
 10
320.6676224827
 20
177.8862713916
 30
0.0
 10
320.6676224827
 20
178.4940485209
 30
0.0
 10
320.5935248254
 20
179.6179460379
 30
0.0
 10
320.205680246
 20
181.1216957577
 30
0.0
 10
319.6261921266
 20
182.1119903469
 30
0.0
 10
319.0298204056
 20
182.6356689349
 30
0.0
 10
318.7024422812
 20
182.8070527072
 30
0.0
 10
318.5352272824
 20
182.8694787514
 30
0.0
  0
ARC
  5
41A
100
AcDbEntity
  8
0
100
AcDbCircle
 62
3
  6
CONTINUOUS
 10
175.3460065502
 20
121.2582525279
 40
7.3154590394
100
AcDbArc
 50
359.9950931879
 51
11.0837222388
  0
ARC
  5
41B
100
AcDbEntity
  8
0
100
AcDbCircle
 62
3
  6
CONTINUOUS
 10
175.3460065502
 20
180.092685208
 40
7.3154590394
100
AcDbArc
 50
359.9950931879
 51
11.0837222388
  0
SPLINE
  5
41C
100
AcDbEntity
  8
0
100
AcDbSpline
 62
3
  6
CONTINUOUS
 70
0
 71
3
 72
12
 73
8
 74
0
 42
0.0000001
 43
0.0000001
 44
0.0000000001
 40
0.0
 40
0.0
 40
0.0
 40
0.0
 40
0.3185843985
 40
0.5872750246
 40
0.8085580559
 40
0.9064403698
 40
1.0
 40
1.0
 40
1.0
 40
1.0
 10
320.6676224827
 20
119.0518387115
 30
0.0
 10
320.6676224827
 20
119.6596158407
 30
0.0
 10
320.5935248254
 20
120.7835133578
 30
0.0
 10
320.205680246
 20
122.2872630775
 30
0.0
 10
319.6261921266
 20
123.2775576668
 30
0.0
 10
319.0298204056
 20
123.8012362548
 30
0.0
 10
318.7024422812
 20
123.972620027
 30
0.0
 10
318.5352272824
 20
124.0350460712
 30
0.0
  0
SPLINE
  5
41D
100
AcDbEntity
  8
0
100
AcDbSpline
 62
3
  6
CONTINUOUS
 70
0
 71
3
 72
19
 73
15
 74
0
 42
0.0000001
 43
0.0000001
 44
0.0000000001
 40
0.0
 40
0.0
 40
0.0
 40
0.0
 40
0.1520086152
 40
0.3196140429
 40
0.4904718341
 40
0.6519900661
 40
0.7922926994
 40
0.851208811
 40
0.9011691619
 40
0.9413123291
 40
0.971030881
 40
0.9819078863
 40
0.9901834455
 40
1.0
 40
1.0
 40
1.0
 40
1.0
 10
344.970402814
 20
402.0461507764
 30
0.0
 10
344.970402814
 20
401.1586217298
 30
0.0
 10
344.9340413967
 20
399.2924685311
 30
0.0
 10
344.8007709956
 20
396.4316085318
 30
0.0
 10
344.5935015878
 20
393.5194228323
 30
0.0
 10
344.3275277079
 20
390.77216107
 30
0.0
 10
344.0624084715
 20
388.682172075
 30
0.0
 10
343.8287630092
 20
387.245917608
 30
0.0
 10
343.6638442452
 20
386.3916865443
 30
0.0
 10
343.5004218038
 20
385.7103807127
 30
0.0
 10
343.3628384586
 20
385.2606871074
 30
0.0
 10
343.2455921094
 20
384.9965457658
 30
0.0
 10
343.1649406564
 20
384.8554962108
 30
0.0
 10
343.0735762303
 20
384.7653020804
 30
0.0
 10
343.0163807162
 20
384.7690115844
 30
0.0
  0
LINE
  5
41E
100
AcDbEntity
  8
SURFACES
100
AcDbLine
 62
9
  6
CONTINUOUS
 10
289.5937748853
 20
356.7067351698
 11
289.5937748853
 21
62.5345717692
  0
ARC
  5
41F
100
AcDbEntity
  8
0
100
AcDbCircle
 62
3
  6
CONTINUOUS
 10
175.3460065502
 20
238.9271178881
 40
7.3154590394
100
AcDbArc
 50
359.9950931879
 51
11.0837222388
  0
LINE
  5
420
100
AcDbEntity
  8
SURFACES
100
AcDbLine
 62
3
  6
CONTINUOUS
 10
348.531989879
 20
449.5948504906
 11
348.5700865189
 21
449.9839638686
  0
SPLINE
  5
421
100
AcDbEntity
  8
SURFACES
100
AcDbSpline
 62
3
  6
CONTINUOUS
 70
0
 71
3
 72
9
 73
5
 74
0
 42
0.0000001
 43
0.0000001
 44
0.0000000001
 40
0.0
 40
0.0
 40
0.0
 40
0.0
 40
0.5293227041
 40
1.0
 40
1.0
 40
1.0
 40
1.0
 10
338.0077284287
 20
399.2399075622
 30
0.0
 10
338.242140432
 20
399.4485400242
 30
0.0
 10
338.6433033715
 20
399.8967348189
 30
0.0
 10
338.8798048124
 20
400.457084133
 30
0.0
 10
338.9335894418
 20
400.7308932796
 30
0.0
  0
LINE
  5
422
100
AcDbEntity
  8
SURFACES
100
AcDbLine
 62
9
  6
CONTINUOUS
 10
217.5812475133
 20
329.8221922399
 11
217.5812475133
 21
35.6500288393
  0
SPLINE
  5
423
100
AcDbEntity
  8
SURFACES
100
AcDbSpline
 62
3
  6
CONTINUOUS
 70
0
 71
3
 72
9
 73
5
 74
0
 42
0.0000001
 43
0.0000001
 44
0.0000000001
 40
0.0
 40
0.0
 40
0.0
 40
0.0
 40
0.2698339722
 40
1.0
 40
1.0
 40
1.0
 40
1.0
 10
289.5937748853
 20
356.7067351698
 30
0.0
 10
289.7668698622
 20
356.7713569725
 30
0.0
 10
290.3985707851
 20
357.034216993
 30
0.0
 10
290.9947092104
 20
357.3971614118
 30
0.0
 10
291.3681799931
 20
357.7295596159
 30
0.0
  0
SPLINE
  5
424
100
AcDbEntity
  8
SURFACES
100
AcDbSpline
 62
3
  6
CONTINUOUS
 70
0
 71
3
 72
9
 73
5
 74
0
 42
0.0000001
 43
0.0000001
 44
0.0000000001
 40
0.0
 40
0.0
 40
0.0
 40
0.0
 40
0.2592079466
 40
1.0
 40
1.0
 40
1.0
 40
1.0
 10
214.9946719943
 20
329.2884960317
 30
0.0
 10
215.2228178701
 20
329.3033868818
 30
0.0
 10
216.1005009121
 20
329.3902100995
 30
0.0
 10
216.9691084292
 20
329.5936614539
 30
0.0
 10
217.5812475133
 20
329.8221922399
 30
0.0
  0
SPLINE
  5
425
100
AcDbEntity
  8
0
100
AcDbSpline
 62
3
  6
CONTINUOUS
 70
0
 71
3
 72
16
 73
12
 74
0
 42
0.0000001
 43
0.0000001
 44
0.0000000001
 40
0.0
 40
0.0
 40
0.0
 40
0.0
 40
0.1226644597
 40
0.257145139
 40
0.398151284
 40
0.538749803
 40
0.6721046975
 40
0.7932291167
 40
0.9009036315
 40
0.951089956
 40
1.0
 40
1.0
 40
1.0
 40
1.0
 10
262.820255502
 20
317.2941213966
 30
0.0
 10
262.820255502
 20
316.3122084509
 30
0.0
 10
262.4755271206
 20
314.2490554486
 30
0.0
 10
261.1729615601
 20
311.3121282214
 30
0.0
 10
259.1826899038
 20
308.6097376106
 30
0.0
 10
256.6829605101
 20
306.3847550075
 30
0.0
 10
253.8918018735
 20
304.8359353041
 30
0.0
 10
251.0481457347
 20
304.1047791749
 30
0.0
 10
248.7636195751
 20
304.2749462807
 30
0.0
 10
247.2221651239
 20
304.9092946526
 30
0.0
 10
246.5666528632
 20
305.3701629689
 30
0.0
 10
246.2742030387
 20
305.6304701654
 30
0.0
  0
SPLINE
  5
426
100
AcDbEntity
  8
0
100
AcDbSpline
 62
3
  6
CONTINUOUS
 70
0
 71
3
 72
19
 73
15
 74
0
 42
0.0000001
 43
0.0000001
 44
0.0000000001
 40
0.0
 40
0.0
 40
0.0
 40
0.0
 40
0.1520086152
 40
0.3196140429
 40
0.4904718341
 40
0.6519900661
 40
0.7922926994
 40
0.851208811
 40
0.9011691619
 40
0.9413123291
 40
0.971030881
 40
0.9819078863
 40
0.9901834455
 40
1.0
 40
1.0
 40
1.0
 40
1.0
 10
344.970402814
 20
343.2117180963
 30
0.0
 10
344.970402814
 20
342.3241890497
 30
0.0
 10
344.9340413967
 20
340.458035851
 30
0.0
 10
344.8007709956
 20
337.5971758516
 30
0.0
 10
344.5935015878
 20
334.6849901522
 30
0.0
 10
344.3275277079
 20
331.9377283899
 30
0.0
 10
344.0624084715
 20
329.8477393949
 30
0.0
 10
343.8287630092
 20
328.4114849278
 30
0.0
 10
343.6638442452
 20
327.5572538642
 30
0.0
 10
343.5004218038
 20
326.8759480326
 30
0.0
 10
343.3628384586
 20
326.4262544273
 30
0.0
 10
343.2455921094
 20
326.1621130856
 30
0.0
 10
343.1649406564
 20
326.0210635307
 30
0.0
 10
343.0735762303
 20
325.9308694002
 30
0.0
 10
343.0163807162
 20
325.9345789043
 30
0.0
  0
ARC
  5
427
100
AcDbEntity
  8
0
100
AcDbCircle
 62
3
  6
CONTINUOUS
 10
175.3460065502
 20
297.7615505683
 40
7.3154590394
100
AcDbArc
 50
359.9950931879
 51
11.0837222388
  0
SPLINE
  5
428
100
AcDbEntity
  8
0
100
AcDbSpline
 62
3
  6
CONTINUOUS
 70
0
 71
3
 72
17
 73
13
 74
0
 42
0.0000001
 43
0.0000001
 44
0.0000000001
 40
0.0
 40
0.0
 40
0.0
 40
0.0
 40
0.0347661353
 40
0.072174389
 40
0.114192576
 40
0.1619194164
 40
0.2752713323
 40
0.410068992
 40
0.5593334091
 40
0.7138940908
 40
0.8638726927
 40
1.0
 40
1.0
 40
1.0
 40
1.0
 10
310.8406811394
 20
103.4245269857
 30
0.0
 10
311.0591558828
 20
103.3429642425
 30
0.0
 10
311.5437405552
 20
103.2485739084
 30
0.0
 10
312.3140041221
 20
103.3337542017
 30
0.0
 10
313.1209593177
 20
103.6292840003
 30
0.0
 10
314.2959338725
 20
104.3302443165
 30
0.0
 10
315.7495614986
 20
105.7123289035
 30
0.0
 10
317.3219796151
 20
107.8756645973
 30
0.0
 10
318.7021734847
 20
110.4843355132
 30
0.0
 10
319.7822355855
 20
113.3386227002
 30
0.0
 10
320.4792476326
 20
116.2186286696
 30
0.0
 10
320.6676224827
 20
118.138728516
 30
0.0
 10
320.6676224827
 20
119.0518387115
 30
0.0
  0
SPLINE
  5
429
100
AcDbEntity
  8
0
100
AcDbSpline
 62
3
  6
CONTINUOUS
 70
0
 71
3
 72
16
 73
12
 74
0
 42
0.0000001
 43
0.0000001
 44
0.0000000001
 40
0.0
 40
0.0
 40
0.0
 40
0.0
 40
0.1226644597
 40
0.257145139
 40
0.398151284
 40
0.538749803
 40
0.6721046975
 40
0.7932291167
 40
0.9009036315
 40
0.951089956
 40
1.0
 40
1.0
 40
1.0
 40
1.0
 10
262.820255502
 20
258.4596887165
 30
0.0
 10
262.820255502
 20
257.4777757707
 30
0.0
 10
262.4755271206
 20
255.4146227685
 30
0.0
 10
261.1729615601
 20
252.4776955413
 30
0.0
 10
259.1826899038
 20
249.7753049305
 30
0.0
 10
256.6829605101
 20
247.5503223274
 30
0.0
 10
253.8918018735
 20
246.001502624
 30
0.0
 10
251.0481457347
 20
245.2703464948
 30
0.0
 10
248.7636195751
 20
245.4405136005
 30
0.0
 10
247.2221651239
 20
246.0748619725
 30
0.0
 10
246.5666528632
 20
246.5357302888
 30
0.0
 10
246.2742030387
 20
246.7960374853
 30
0.0
  0
SPLINE
  5
42A
100
AcDbEntity
  8
0
100
AcDbSpline
 62
3
  6
CONTINUOUS
 70
0
 71
3
 72
17
 73
13
 74
0
 42
0.0000001
 43
0.0000001
 44
0.0000000001
 40
0.0
 40
0.0
 40
0.0
 40
0.0
 40
0.0347661353
 40
0.072174389
 40
0.114192576
 40
0.1619194164
 40
0.2752713323
 40
0.410068992
 40
0.5593334091
 40
0.7138940908
 40
0.8638726927
 40
1.0
 40
1.0
 40
1.0
 40
1.0
 10
310.8406811394
 20
162.2589596658
 30
0.0
 10
311.0591558828
 20
162.1773969226
 30
0.0
 10
311.5437405552
 20
162.0830065885
 30
0.0
 10
312.3140041221
 20
162.1681868818
 30
0.0
 10
313.1209593177
 20
162.4637166804
 30
0.0
 10
314.2959338725
 20
163.1646769967
 30
0.0
 10
315.7495614986
 20
164.5467615837
 30
0.0
 10
317.3219796151
 20
166.7100972775
 30
0.0
 10
318.7021734847
 20
169.3187681933
 30
0.0
 10
319.7822355855
 20
172.1730553804
 30
0.0
 10
320.4792476326
 20
175.0530613497
 30
0.0
 10
320.6676224827
 20
176.9731611962
 30
0.0
 10
320.6676224827
 20
177.8862713916
 30
0.0
  0
SPLINE
  5
42B
100
AcDbEntity
  8
0
100
AcDbSpline
 62
3
  6
CONTINUOUS
 70
0
 71
3
 72
17
 73
13
 74
0
 42
0.0000001
 43
0.0000001
 44
0.0000000001
 40
0.0
 40
0.0
 40
0.0
 40
0.0
 40
0.0347661353
 40
0.072174389
 40
0.114192576
 40
0.1619194164
 40
0.2752713323
 40
0.410068992
 40
0.5593334091
 40
0.7138940908
 40
0.8638726927
 40
1.0
 40
1.0
 40
1.0
 40
1.0
 10
310.8406811394
 20
221.0933923459
 30
0.0
 10
311.0591558828
 20
221.0118296028
 30
0.0
 10
311.5437405552
 20
220.9174392686
 30
0.0
 10
312.3140041221
 20
221.0026195619
 30
0.0
 10
313.1209593177
 20
221.2981493605
 30
0.0
 10
314.2959338725
 20
221.9991096768
 30
0.0
 10
315.7495614986
 20
223.3811942638
 30
0.0
 10
317.3219796151
 20
225.5445299576
 30
0.0
 10
318.7021734847
 20
228.1532008735
 30
0.0
 10
319.7822355855
 20
231.0074880605
 30
0.0
 10
320.4792476326
 20
233.8874940298
 30
0.0
 10
320.6676224827
 20
235.8075938763
 30
0.0
 10
320.6676224827
 20
236.7207040717
 30
0.0
  0
SPLINE
  5
42C
100
AcDbEntity
  8
0
100
AcDbSpline
 62
3
  6
CONTINUOUS
 70
0
 71
3
 72
16
 73
12
 74
0
 42
0.0000001
 43
0.0000001
 44
0.0000000001
 40
0.0
 40
0.0
 40
0.0
 40
0.0
 40
0.1226644597
 40
0.257145139
 40
0.398151284
 40
0.538749803
 40
0.6721046975
 40
0.7932291167
 40
0.9009036315
 40
0.951089956
 40
1.0
 40
1.0
 40
1.0
 40
1.0
 10
262.820255502
 20
199.6252560364
 30
0.0
 10
262.820255502
 20
198.6433430906
 30
0.0
 10
262.4755271206
 20
196.5801900883
 30
0.0
 10
261.1729615601
 20
193.6432628611
 30
0.0
 10
259.1826899038
 20
190.9408722503
 30
0.0
 10
256.6829605101
 20
188.7158896473
 30
0.0
 10
253.8918018735
 20
187.1670699439
 30
0.0
 10
251.0481457347
 20
186.4359138146
 30
0.0
 10
248.7636195751
 20
186.6060809204
 30
0.0
 10
247.2221651239
 20
187.2404292923
 30
0.0
 10
246.5666528632
 20
187.7012976086
 30
0.0
 10
246.2742030387
 20
187.9616048051
 30
0.0
  0
SPLINE
  5
42D
100
AcDbEntity
  8
0
100
AcDbSpline
 62
3
  6
CONTINUOUS
 70
0
 71
3
 72
17
 73
13
 74
0
 42
0.0000001
 43
0.0000001
 44
0.0000000001
 40
0.0
 40
0.0
 40
0.0
 40
0.0
 40
0.0347661353
 40
0.072174389
 40
0.114192576
 40
0.1619194164
 40
0.2752713323
 40
0.410068992
 40
0.5593334091
 40
0.7138940908
 40
0.8638726927
 40
1.0
 40
1.0
 40
1.0
 40
1.0
 10
310.8406811394
 20
279.9278250261
 30
0.0
 10
311.0591558828
 20
279.8462622829
 30
0.0
 10
311.5437405552
 20
279.7518719488
 30
0.0
 10
312.3140041221
 20
279.8370522421
 30
0.0
 10
313.1209593177
 20
280.1325820407
 30
0.0
 10
314.2959338725
 20
280.8335423569
 30
0.0
 10
315.7495614986
 20
282.2156269439
 30
0.0
 10
317.3219796151
 20
284.3789626377
 30
0.0
 10
318.7021734847
 20
286.9876335536
 30
0.0
 10
319.7822355855
 20
289.8419207406
 30
0.0
 10
320.4792476326
 20
292.72192671
 30
0.0
 10
320.6676224827
 20
294.6420265564
 30
0.0
 10
320.6676224827
 20
295.5551367519
 30
0.0
  0
SPLINE
  5
42E
100
AcDbEntity
  8
0
100
AcDbSpline
 62
3
  6
CONTINUOUS
 70
0
 71
3
 72
19
 73
15
 74
0
 42
0.0000001
 43
0.0000001
 44
0.0000000001
 40
0.0
 40
0.0
 40
0.0
 40
0.0
 40
0.1520086152
 40
0.3196140429
 40
0.4904718341
 40
0.6519900661
 40
0.7922926994
 40
0.851208811
 40
0.9011691619
 40
0.9413123291
 40
0.971030881
 40
0.9819078863
 40
0.9901834455
 40
1.0
 40
1.0
 40
1.0
 40
1.0
 10
344.970402814
 20
284.3772854162
 30
0.0
 10
344.970402814
 20
283.4897563696
 30
0.0
 10
344.9340413967
 20
281.6236031709
 30
0.0
 10
344.8007709956
 20
278.7627431715
 30
0.0
 10
344.5935015878
 20
275.850557472
 30
0.0
 10
344.3275277079
 20
273.1032957098
 30
0.0
 10
344.0624084715
 20
271.0133067148
 30
0.0
 10
343.8287630092
 20
269.5770522477
 30
0.0
 10
343.6638442452
 20
268.7228211841
 30
0.0
 10
343.5004218038
 20
268.0415153524
 30
0.0
 10
343.3628384586
 20
267.5918217472
 30
0.0
 10
343.2455921094
 20
267.3276804055
 30
0.0
 10
343.1649406564
 20
267.1866308506
 30
0.0
 10
343.0735762303
 20
267.0964367201
 30
0.0
 10
343.0163807162
 20
267.1001462242
 30
0.0
  0
SPLINE
  5
42F
100
AcDbEntity
  8
0
100
AcDbSpline
 62
3
  6
CONTINUOUS
 70
0
 71
3
 72
17
 73
13
 74
0
 42
0.0000001
 43
0.0000001
 44
0.0000000001
 40
0.0
 40
0.0
 40
0.0
 40
0.0
 40
0.0347661353
 40
0.072174389
 40
0.114192576
 40
0.1619194164
 40
0.2752713323
 40
0.410068992
 40
0.5593334091
 40
0.7138940908
 40
0.8638726927
 40
1.0
 40
1.0
 40
1.0
 40
1.0
 10
310.8406811394
 20
338.7622577062
 30
0.0
 10
311.0591558828
 20
338.680694963
 30
0.0
 10
311.5437405552
 20
338.5863046289
 30
0.0
 10
312.3140041221
 20
338.6714849222
 30
0.0
 10
313.1209593177
 20
338.9670147208
 30
0.0
 10
314.2959338725
 20
339.667975037
 30
0.0
 10
315.7495614986
 20
341.050059624
 30
0.0
 10
317.3219796151
 20
343.2133953178
 30
0.0
 10
318.7021734847
 20
345.8220662337
 30
0.0
 10
319.7822355855
 20
348.6763534208
 30
0.0
 10
320.4792476326
 20
351.5563593901
 30
0.0
 10
320.6676224827
 20
353.4764592366
 30
0.0
 10
320.6676224827
 20
354.389569432
 30
0.0
  0
SPLINE
  5
430
100
AcDbEntity
  8
0
100
AcDbSpline
 62
3
  6
CONTINUOUS
 70
0
 71
3
 72
12
 73
8
 74
0
 42
0.0000001
 43
0.0000001
 44
0.0000000001
 40
0.0
 40
0.0
 40
0.0
 40
0.0
 40
0.1114637147
 40
0.2254700657
 40
0.4663576171
 40
0.7280172703
 40
1.0
 40
1.0
 40
1.0
 40
1.0
 10
178.385716267
 20
268.611745476
 30
0.0
 10
178.4337004113
 20
268.3675531749
 30
0.0
 10
178.4640444722
 20
267.8579704173
 30
0.0
 10
178.2531125726
 20
266.8279861126
 30
0.0
 10
177.4752225081
 20
265.6296712202
 30
0.0
 10
176.0066261489
 20
264.6483663912
 30
0.0
 10
174.8213952104
 20
264.3591284669
 30
0.0
 10
174.2154358028
 20
264.3195781104
 30
0.0
  0
SPLINE
  5
431
100
AcDbEntity
  8
0
100
AcDbSpline
 62
3
  6
CONTINUOUS
 70
0
 71
3
 72
16
 73
12
 74
0
 42
0.0000001
 43
0.0000001
 44
0.0000000001
 40
0.0
 40
0.0
 40
0.0
 40
0.0
 40
0.1226644597
 40
0.257145139
 40
0.398151284
 40
0.538749803
 40
0.6721046975
 40
0.7932291167
 40
0.9009036315
 40
0.951089956
 40
1.0
 40
1.0
 40
1.0
 40
1.0
 10
262.820255502
 20
140.7908233563
 30
0.0
 10
262.820255502
 20
139.8089104105
 30
0.0
 10
262.4755271206
 20
137.7457574082
 30
0.0
 10
261.1729615601
 20
134.808830181
 30
0.0
 10
259.1826899038
 20
132.1064395702
 30
0.0
 10
256.6829605101
 20
129.8814569671
 30
0.0
 10
253.8918018735
 20
128.3326372637
 30
0.0
 10
251.0481457347
 20
127.6014811345
 30
0.0
 10
248.7636195751
 20
127.7716482403
 30
0.0
 10
247.2221651239
 20
128.4059966122
 30
0.0
 10
246.5666528632
 20
128.8668649285
 30
0.0
 10
246.2742030387
 20
129.127172125
 30
0.0
  0
SPLINE
  5
432
100
AcDbEntity
  8
0
100
AcDbSpline
 62
3
  6
CONTINUOUS
 70
0
 71
3
 72
10
 73
6
 74
0
 42
0.0000001
 43
0.0000001
 44
0.0000000001
 40
0.0
 40
0.0
 40
0.0
 40
0.0
 40
0.2352601843
 40
0.4773464346
 40
1.0
 40
1.0
 40
1.0
 40
1.0
 10
260.9008193599
 20
86.7262938437
 30
0.0
 10
261.2099641329
 20
86.4511266102
 30
0.0
 10
261.7715044685
 20
85.8137329009
 30
0.0
 10
262.6020287432
 20
84.2490036396
 30
0.0
 10
262.820255502
 20
82.8758410974
 30
0.0
 10
262.820255502
 20
81.9563906761
 30
0.0
  0
SPLINE
  5
433
100
AcDbEntity
  8
0
100
AcDbSpline
 62
3
  6
CONTINUOUS
 70
0
 71
3
 72
12
 73
8
 74
0
 42
0.0000001
 43
0.0000001
 44
0.0000000001
 40
0.0
 40
0.0
 40
0.0
 40
0.0
 40
0.1114637147
 40
0.2254700657
 40
0.4663576171
 40
0.7280172703
 40
1.0
 40
1.0
 40
1.0
 40
1.0
 10
178.385716267
 20
92.1084474356
 30
0.0
 10
178.4337004113
 20
91.8642551345
 30
0.0
 10
178.4640444722
 20
91.354672377
 30
0.0
 10
178.2531125726
 20
90.3246880722
 30
0.0
 10
177.4752225081
 20
89.1263731798
 30
0.0
 10
176.0066261489
 20
88.1450683508
 30
0.0
 10
174.8213952104
 20
87.8558304265
 30
0.0
 10
174.2154358028
 20
87.81628007
 30
0.0
  0
SPLINE
  5
434
100
AcDbEntity
  8
0
100
AcDbSpline
 62
3
  6
CONTINUOUS
 70
0
 71
3
 72
16
 73
12
 74
0
 42
0.0000001
 43
0.0000001
 44
0.0000000001
 40
0.0
 40
0.0
 40
0.0
 40
0.0
 40
0.1226644597
 40
0.257145139
 40
0.398151284
 40
0.538749803
 40
0.6721046975
 40
0.7932291167
 40
0.9009036315
 40
0.951089956
 40
1.0
 40
1.0
 40
1.0
 40
1.0
 10
262.820255502
 20
81.9563906761
 30
0.0
 10
262.820255502
 20
80.9744777303
 30
0.0
 10
262.4755271206
 20
78.9113247281
 30
0.0
 10
261.1729615601
 20
75.9743975009
 30
0.0
 10
259.1826899038
 20
73.2720068901
 30
0.0
 10
256.6829605101
 20
71.047024287
 30
0.0
 10
253.8918018735
 20
69.4982045836
 30
0.0
 10
251.0481457347
 20
68.7670484544
 30
0.0
 10
248.7636195751
 20
68.9372155602
 30
0.0
 10
247.2221651239
 20
69.5715639321
 30
0.0
 10
246.5666528632
 20
70.0324322484
 30
0.0
 10
246.2742030387
 20
70.2927394449
 30
0.0
  0
SPLINE
  5
435
100
AcDbEntity
  8
0
100
AcDbSpline
 62
3
  6
CONTINUOUS
 70
0
 71
3
 72
10
 73
6
 74
0
 42
0.0000001
 43
0.0000001
 44
0.0000000001
 40
0.0
 40
0.0
 40
0.0
 40
0.0
 40
0.2352601843
 40
0.4773464346
 40
1.0
 40
1.0
 40
1.0
 40
1.0
 10
260.9008193599
 20
322.0640245642
 30
0.0
 10
261.2099641329
 20
321.7888573307
 30
0.0
 10
261.7715044685
 20
321.1514636214
 30
0.0
 10
262.6020287432
 20
319.5867343601
 30
0.0
 10
262.820255502
 20
318.2135718179
 30
0.0
 10
262.820255502
 20
317.2941213966
 30
0.0
  0
SPLINE
  5
436
100
AcDbEntity
  8
0
100
AcDbSpline
 62
3
  6
CONTINUOUS
 70
0
 71
3
 72
10
 73
6
 74
0
 42
0.0000001
 43
0.0000001
 44
0.0000000001
 40
0.0
 40
0.0
 40
0.0
 40
0.0
 40
0.2352601843
 40
0.4773464346
 40
1.0
 40
1.0
 40
1.0
 40
1.0
 10
260.9008193599
 20
145.5607265238
 30
0.0
 10
261.2099641329
 20
145.2855592903
 30
0.0
 10
261.7715044685
 20
144.648165581
 30
0.0
 10
262.6020287432
 20
143.0834363198
 30
0.0
 10
262.820255502
 20
141.7102737775
 30
0.0
 10
262.820255502
 20
140.7908233563
 30
0.0
  0
SPLINE
  5
437
100
AcDbEntity
  8
0
100
AcDbSpline
 62
3
  6
CONTINUOUS
 70
0
 71
3
 72
12
 73
8
 74
0
 42
0.0000001
 43
0.0000001
 44
0.0000000001
 40
0.0
 40
0.0
 40
0.0
 40
0.0
 40
0.2690720779
 40
0.5300894925
 40
0.7733049584
 40
0.8883956631
 40
1.0
 40
1.0
 40
1.0
 40
1.0
 10
160.2647647313
 20
325.7163304442
 30
0.0
 10
159.3565019006
 20
325.6570490497
 30
0.0
 10
157.5733118267
 20
325.2508422657
 30
0.0
 10
155.2934029945
 20
323.8798547569
 30
0.0
 10
153.951170511
 20
322.1936401329
 30
0.0
 10
153.4029114497
 20
320.6895030182
 30
0.0
 10
153.3092108113
 20
319.9198603782
 30
0.0
 10
153.3092108113
 20
319.5423341998
 30
0.0
  0
SPLINE
  5
438
100
AcDbEntity
  8
0
100
AcDbSpline
 62
3
  6
CONTINUOUS
 70
0
 71
3
 72
10
 73
6
 74
0
 42
0.0000001
 43
0.0000001
 44
0.0000000001
 40
0.0
 40
0.0
 40
0.0
 40
0.0
 40
0.2352601843
 40
0.4773464346
 40
1.0
 40
1.0
 40
1.0
 40
1.0
 10
260.9008193599
 20
263.2295918841
 30
0.0
 10
261.2099641329
 20
262.9544246506
 30
0.0
 10
261.7715044685
 20
262.3170309413
 30
0.0
 10
262.6020287432
 20
260.75230168
 30
0.0
 10
262.820255502
 20
259.3791391378
 30
0.0
 10
262.820255502
 20
258.4596887165
 30
0.0
  0
LINE
  5
439
100
AcDbEntity
  8
SURFACES
100
AcDbLine
 62
9
  6
CONTINUOUS
 10
214.9946719943
 20
329.2884960317
 11
214.9946719943
 21
35.116332631
  0
SPLINE
  5
43A
100
AcDbEntity
  8
0
100
AcDbSpline
 62
3
  6
CONTINUOUS
 70
0
 71
3
 72
10
 73
6
 74
0
 42
0.0000001
 43
0.0000001
 44
0.0000000001
 40
0.0
 40
0.0
 40
0.0
 40
0.0
 40
0.2352601843
 40
0.4773464346
 40
1.0
 40
1.0
 40
1.0
 40
1.0
 10
260.9008193599
 20
204.3951592039
 30
0.0
 10
261.2099641329
 20
204.1199919705
 30
0.0
 10
261.7715044685
 20
203.4825982611
 30
0.0
 10
262.6020287432
 20
201.9178689999
 30
0.0
 10
262.820255502
 20
200.5447064577
 30
0.0
 10
262.820255502
 20
199.6252560364
 30
0.0
  0
ARC
  5
43B
100
AcDbEntity
  8
0
100
AcDbCircle
 62
3
  6
CONTINUOUS
 10
862.0636572717
 20
546.9737151252
 40
7.0
100
AcDbArc
 50
270.0
 51
360.0
  0
ARC
  5
43C
100
AcDbEntity
  8
0
100
AcDbCircle
 62
3
  6
CONTINUOUS
 10
862.0636572717
 20
892.9737151252
 40
7.0
100
AcDbArc
 50
0.0
 51
90.0
  0
LINE
  5
43D
100
AcDbEntity
  8
0
100
AcDbLine
 62
3
  6
CONTINUOUS
 10
869.0636572717
 20
546.9737151252
 11
869.0636572717
 21
892.9737151252
  0
ARC
  5
43E
100
AcDbEntity
  8
0
100
AcDbCircle
 62
3
  6
CONTINUOUS
 10
848.2024386374
 20
611.9737151252
 40
4.25
100
AcDbArc
 50
90.0
 51
270.0
  0
LINE
  5
43F
100
AcDbEntity
  8
0
100
AcDbLine
 62
3
  6
CONTINUOUS
 10
848.2024386374
 20
607.7237151252
 11
853.2024386374
 21
607.7237151252
  0
ARC
  5
440
100
AcDbEntity
  8
0
100
AcDbCircle
 62
3
  6
CONTINUOUS
 10
853.2024386374
 20
611.9737151252
 40
4.25
100
AcDbArc
 50
270.0
 51
90.0
  0
LINE
  5
441
100
AcDbEntity
  8
0
100
AcDbLine
 62
3
  6
CONTINUOUS
 10
853.2024386374
 20
616.2237151252
 11
848.2024386374
 21
616.2237151252
  0
LINE
  5
442
100
AcDbEntity
  8
0
100
AcDbLine
 62
3
  6
CONTINUOUS
 10
848.2024386374
 20
823.7237151252
 11
853.2024386374
 21
823.7237151252
  0
ARC
  5
443
100
AcDbEntity
  8
0
100
AcDbCircle
 62
3
  6
CONTINUOUS
 10
853.2024386374
 20
827.9737151252
 40
4.25
100
AcDbArc
 50
270.0
 51
90.0
  0
LINE
  5
444
100
AcDbEntity
  8
0
100
AcDbLine
 62
3
  6
CONTINUOUS
 10
853.2024386374
 20
832.2237151252
 11
848.2024386374
 21
832.2237151252
  0
ARC
  5
445
100
AcDbEntity
  8
0
100
AcDbCircle
 62
3
  6
CONTINUOUS
 10
848.2024386374
 20
827.9737151252
 40
4.25
100
AcDbArc
 50
90.0
 51
270.0
  0
ARC
  5
446
100
AcDbEntity
  8
0
100
AcDbCircle
 62
3
  6
CONTINUOUS
 10
850.7024386374
 20
863.9737151252
 40
11.0
100
AcDbArc
 50
0.0
 51
180.0
  0
ARC
  5
447
100
AcDbEntity
  8
0
100
AcDbCircle
 62
3
  6
CONTINUOUS
 10
850.7024386374
 20
863.9737151252
 40
11.0
100
AcDbArc
 50
180.0
 51
360.0
  0
ARC
  5
448
100
AcDbEntity
  8
0
100
AcDbCircle
 62
3
  6
CONTINUOUS
 10
850.7024386374
 20
791.9737151252
 40
11.0
100
AcDbArc
 50
0.0
 51
180.0
  0
ARC
  5
449
100
AcDbEntity
  8
0
100
AcDbCircle
 62
3
  6
CONTINUOUS
 10
850.7024386374
 20
791.9737151252
 40
11.0
100
AcDbArc
 50
180.0
 51
360.0
  0
ARC
  5
44A
100
AcDbEntity
  8
0
100
AcDbCircle
 62
3
  6
CONTINUOUS
 10
850.7024386374
 20
719.9737151252
 40
11.0
100
AcDbArc
 50
0.0
 51
180.0
  0
ARC
  5
44B
100
AcDbEntity
  8
0
100
AcDbCircle
 62
3
  6
CONTINUOUS
 10
850.7024386374
 20
719.9737151252
 40
11.0
100
AcDbArc
 50
180.0
 51
360.0
  0
ARC
  5
44C
100
AcDbEntity
  8
0
100
AcDbCircle
 62
3
  6
CONTINUOUS
 10
850.7024386374
 20
647.9737151252
 40
11.0
100
AcDbArc
 50
0.0
 51
180.0
  0
ARC
  5
44D
100
AcDbEntity
  8
0
100
AcDbCircle
 62
3
  6
CONTINUOUS
 10
850.7024386374
 20
647.9737151252
 40
11.0
100
AcDbArc
 50
180.0
 51
360.0
  0
ARC
  5
44E
100
AcDbEntity
  8
0
100
AcDbCircle
 62
3
  6
CONTINUOUS
 10
850.7024386374
 20
575.9737151252
 40
11.0
100
AcDbArc
 50
0.0
 51
180.0
  0
ARC
  5
44F
100
AcDbEntity
  8
0
100
AcDbCircle
 62
3
  6
CONTINUOUS
 10
850.7024386374
 20
575.9737151252
 40
11.0
100
AcDbArc
 50
180.0
 51
360.0
  0
ARC
  5
450
100
AcDbEntity
  8
0
100
AcDbCircle
 62
3
  6
CONTINUOUS
 10
762.7121192403
 20
863.9737151252
 40
11.0
100
AcDbArc
 50
0.0
 51
180.0
  0
ARC
  5
451
100
AcDbEntity
  8
0
100
AcDbCircle
 62
3
  6
CONTINUOUS
 10
762.7121192403
 20
863.9737151252
 40
11.0
100
AcDbArc
 50
180.0
 51
360.0
  0
ARC
  5
452
100
AcDbEntity
  8
0
100
AcDbCircle
 62
3
  6
CONTINUOUS
 10
762.7121192403
 20
791.9737151252
 40
11.0
100
AcDbArc
 50
0.0
 51
180.0
  0
ARC
  5
453
100
AcDbEntity
  8
0
100
AcDbCircle
 62
3
  6
CONTINUOUS
 10
762.7121192403
 20
791.9737151252
 40
11.0
100
AcDbArc
 50
180.0
 51
360.0
  0
ARC
  5
454
100
AcDbEntity
  8
0
100
AcDbCircle
 62
3
  6
CONTINUOUS
 10
762.7121192403
 20
719.9737151252
 40
11.0
100
AcDbArc
 50
0.0
 51
180.0
  0
ARC
  5
455
100
AcDbEntity
  8
0
100
AcDbCircle
 62
3
  6
CONTINUOUS
 10
762.7121192403
 20
719.9737151252
 40
11.0
100
AcDbArc
 50
180.0
 51
360.0
  0
ARC
  5
456
100
AcDbEntity
  8
0
100
AcDbCircle
 62
3
  6
CONTINUOUS
 10
762.7121192403
 20
647.9737151252
 40
11.0
100
AcDbArc
 50
0.0
 51
180.0
  0
ARC
  5
457
100
AcDbEntity
  8
0
100
AcDbCircle
 62
3
  6
CONTINUOUS
 10
762.7121192403
 20
647.9737151252
 40
11.0
100
AcDbArc
 50
180.0
 51
360.0
  0
ARC
  5
458
100
AcDbEntity
  8
0
100
AcDbCircle
 62
3
  6
CONTINUOUS
 10
762.7121192403
 20
575.9737151252
 40
11.0
100
AcDbArc
 50
0.0
 51
180.0
  0
ARC
  5
459
100
AcDbEntity
  8
0
100
AcDbCircle
 62
3
  6
CONTINUOUS
 10
762.7121192403
 20
575.9737151252
 40
11.0
100
AcDbArc
 50
180.0
 51
360.0
  0
ARC
  5
45A
100
AcDbEntity
  8
0
100
AcDbCircle
 62
3
  6
CONTINUOUS
 10
675.4276992269
 20
863.9737151252
 40
11.0
100
AcDbArc
 50
0.0
 51
180.0
  0
ARC
  5
45B
100
AcDbEntity
  8
0
100
AcDbCircle
 62
3
  6
CONTINUOUS
 10
675.4276992269
 20
863.9737151252
 40
11.0
100
AcDbArc
 50
180.0
 51
360.0
  0
ARC
  5
45C
100
AcDbEntity
  8
0
100
AcDbCircle
 62
3
  6
CONTINUOUS
 10
675.4276992269
 20
791.9737151252
 40
11.0
100
AcDbArc
 50
0.0
 51
180.0
  0
ARC
  5
45D
100
AcDbEntity
  8
0
100
AcDbCircle
 62
3
  6
CONTINUOUS
 10
675.4276992269
 20
791.9737151252
 40
11.0
100
AcDbArc
 50
180.0
 51
360.0
  0
ARC
  5
45E
100
AcDbEntity
  8
0
100
AcDbCircle
 62
3
  6
CONTINUOUS
 10
675.4276992269
 20
719.9737151252
 40
11.0
100
AcDbArc
 50
0.0
 51
180.0
  0
ARC
  5
45F
100
AcDbEntity
  8
0
100
AcDbCircle
 62
3
  6
CONTINUOUS
 10
675.4276992269
 20
719.9737151252
 40
11.0
100
AcDbArc
 50
180.0
 51
360.0
  0
ARC
  5
460
100
AcDbEntity
  8
0
100
AcDbCircle
 62
3
  6
CONTINUOUS
 10
675.4276992269
 20
647.9737151252
 40
11.0
100
AcDbArc
 50
0.0
 51
180.0
  0
ARC
  5
461
100
AcDbEntity
  8
0
100
AcDbCircle
 62
3
  6
CONTINUOUS
 10
675.4276992269
 20
647.9737151252
 40
11.0
100
AcDbArc
 50
180.0
 51
360.0
  0
ARC
  5
462
100
AcDbEntity
  8
0
100
AcDbCircle
 62
3
  6
CONTINUOUS
 10
675.4276992269
 20
575.9737151252
 40
11.0
100
AcDbArc
 50
0.0
 51
180.0
  0
ARC
  5
463
100
AcDbEntity
  8
0
100
AcDbCircle
 62
3
  6
CONTINUOUS
 10
675.4276992269
 20
575.9737151252
 40
11.0
100
AcDbArc
 50
180.0
 51
360.0
  0
ARC
  5
464
100
AcDbEntity
  8
0
100
AcDbCircle
 62
3
  6
CONTINUOUS
 10
588.1429412831
 20
863.9737151252
 40
11.0
100
AcDbArc
 50
0.0
 51
180.0
  0
ARC
  5
465
100
AcDbEntity
  8
0
100
AcDbCircle
 62
3
  6
CONTINUOUS
 10
588.1429412831
 20
863.9737151252
 40
11.0
100
AcDbArc
 50
180.0
 51
360.0
  0
ARC
  5
466
100
AcDbEntity
  8
0
100
AcDbCircle
 62
3
  6
CONTINUOUS
 10
588.1429412831
 20
791.9737151252
 40
11.0
100
AcDbArc
 50
0.0
 51
180.0
  0
ARC
  5
467
100
AcDbEntity
  8
0
100
AcDbCircle
 62
3
  6
CONTINUOUS
 10
588.1429412831
 20
791.9737151252
 40
11.0
100
AcDbArc
 50
180.0
 51
360.0
  0
ARC
  5
468
100
AcDbEntity
  8
0
100
AcDbCircle
 62
3
  6
CONTINUOUS
 10
588.1429412831
 20
719.9737151252
 40
11.0
100
AcDbArc
 50
0.0
 51
180.0
  0
ARC
  5
469
100
AcDbEntity
  8
0
100
AcDbCircle
 62
3
  6
CONTINUOUS
 10
588.1429412831
 20
719.9737151252
 40
11.0
100
AcDbArc
 50
180.0
 51
360.0
  0
ARC
  5
46A
100
AcDbEntity
  8
0
100
AcDbCircle
 62
3
  6
CONTINUOUS
 10
588.1429412831
 20
647.9737151252
 40
11.0
100
AcDbArc
 50
0.0
 51
180.0
  0
ARC
  5
46B
100
AcDbEntity
  8
0
100
AcDbCircle
 62
3
  6
CONTINUOUS
 10
588.1429412831
 20
647.9737151252
 40
11.0
100
AcDbArc
 50
180.0
 51
360.0
  0
ARC
  5
46C
100
AcDbEntity
  8
0
100
AcDbCircle
 62
3
  6
CONTINUOUS
 10
588.1429412831
 20
575.9737151252
 40
11.0
100
AcDbArc
 50
0.0
 51
180.0
  0
ARC
  5
46D
100
AcDbEntity
  8
0
100
AcDbCircle
 62
3
  6
CONTINUOUS
 10
588.1429412831
 20
575.9737151252
 40
11.0
100
AcDbArc
 50
180.0
 51
360.0
  0
ARC
  5
46E
100
AcDbEntity
  8
0
100
AcDbCircle
 62
3
  6
CONTINUOUS
 10
500.7526336449
 20
863.9737151252
 40
11.0
100
AcDbArc
 50
0.0
 51
180.0
  0
ARC
  5
46F
100
AcDbEntity
  8
0
100
AcDbCircle
 62
3
  6
CONTINUOUS
 10
500.7526336449
 20
863.9737151252
 40
11.0
100
AcDbArc
 50
180.0
 51
360.0
  0
ARC
  5
470
100
AcDbEntity
  8
0
100
AcDbCircle
 62
3
  6
CONTINUOUS
 10
500.7526336449
 20
791.9737151252
 40
11.0
100
AcDbArc
 50
0.0
 51
180.0
  0
ARC
  5
471
100
AcDbEntity
  8
0
100
AcDbCircle
 62
3
  6
CONTINUOUS
 10
500.7526336449
 20
791.9737151252
 40
11.0
100
AcDbArc
 50
180.0
 51
360.0
  0
ARC
  5
472
100
AcDbEntity
  8
0
100
AcDbCircle
 62
3
  6
CONTINUOUS
 10
500.7526336449
 20
719.9737151252
 40
11.0
100
AcDbArc
 50
0.0
 51
180.0
  0
ARC
  5
473
100
AcDbEntity
  8
0
100
AcDbCircle
 62
3
  6
CONTINUOUS
 10
500.7526336449
 20
719.9737151252
 40
11.0
100
AcDbArc
 50
180.0
 51
360.0
  0
ARC
  5
474
100
AcDbEntity
  8
0
100
AcDbCircle
 62
3
  6
CONTINUOUS
 10
500.7526336449
 20
647.9737151252
 40
11.0
100
AcDbArc
 50
0.0
 51
180.0
  0
ARC
  5
475
100
AcDbEntity
  8
0
100
AcDbCircle
 62
3
  6
CONTINUOUS
 10
500.7526336449
 20
647.9737151252
 40
11.0
100
AcDbArc
 50
180.0
 51
360.0
  0
ARC
  5
476
100
AcDbEntity
  8
0
100
AcDbCircle
 62
3
  6
CONTINUOUS
 10
500.7526336449
 20
575.9737151252
 40
11.0
100
AcDbArc
 50
0.0
 51
180.0
  0
ARC
  5
477
100
AcDbEntity
  8
0
100
AcDbCircle
 62
3
  6
CONTINUOUS
 10
500.7526336449
 20
575.9737151252
 40
11.0
100
AcDbArc
 50
180.0
 51
360.0
  0
ARC
  5
478
100
AcDbEntity
  8
0
100
AcDbCircle
 62
3
  6
CONTINUOUS
 10
413.2812320772
 20
863.9737151252
 40
11.0
100
AcDbArc
 50
0.0
 51
180.0
  0
ARC
  5
479
100
AcDbEntity
  8
0
100
AcDbCircle
 62
3
  6
CONTINUOUS
 10
413.2812320772
 20
863.9737151252
 40
11.0
100
AcDbArc
 50
180.0
 51
360.0
  0
ARC
  5
47A
100
AcDbEntity
  8
0
100
AcDbCircle
 62
3
  6
CONTINUOUS
 10
413.2812320772
 20
791.9737151252
 40
11.0
100
AcDbArc
 50
0.0
 51
180.0
  0
ARC
  5
47B
100
AcDbEntity
  8
0
100
AcDbCircle
 62
3
  6
CONTINUOUS
 10
413.2812320772
 20
791.9737151252
 40
11.0
100
AcDbArc
 50
180.0
 51
360.0
  0
ARC
  5
47C
100
AcDbEntity
  8
0
100
AcDbCircle
 62
3
  6
CONTINUOUS
 10
413.2812320772
 20
719.9737151252
 40
11.0
100
AcDbArc
 50
0.0
 51
180.0
  0
ARC
  5
47D
100
AcDbEntity
  8
0
100
AcDbCircle
 62
3
  6
CONTINUOUS
 10
413.2812320772
 20
719.9737151252
 40
11.0
100
AcDbArc
 50
180.0
 51
360.0
  0
ARC
  5
47E
100
AcDbEntity
  8
0
100
AcDbCircle
 62
3
  6
CONTINUOUS
 10
413.2812320772
 20
647.9737151252
 40
11.0
100
AcDbArc
 50
0.0
 51
180.0
  0
ARC
  5
47F
100
AcDbEntity
  8
0
100
AcDbCircle
 62
3
  6
CONTINUOUS
 10
413.2812320772
 20
647.9737151252
 40
11.0
100
AcDbArc
 50
180.0
 51
360.0
  0
ARC
  5
480
100
AcDbEntity
  8
0
100
AcDbCircle
 62
3
  6
CONTINUOUS
 10
413.2812320772
 20
575.9737151252
 40
11.0
100
AcDbArc
 50
0.0
 51
180.0
  0
ARC
  5
481
100
AcDbEntity
  8
0
100
AcDbCircle
 62
3
  6
CONTINUOUS
 10
413.2812320772
 20
575.9737151252
 40
11.0
100
AcDbArc
 50
180.0
 51
360.0
  0
ARC
  5
482
100
AcDbEntity
  8
0
100
AcDbCircle
 62
3
  6
CONTINUOUS
 10
313.4669495378
 20
892.9737151252
 40
7.0
100
AcDbArc
 50
90.0
 51
180.0
  0
ARC
  5
483
100
AcDbEntity
  8
0
100
AcDbCircle
 62
3
  6
CONTINUOUS
 10
313.4669495378
 20
546.9737151252
 40
7.0
100
AcDbArc
 50
180.0
 51
270.0
  0
LINE
  5
484
100
AcDbEntity
  8
0
100
AcDbLine
 62
3
  6
CONTINUOUS
 10
306.4669495378
 20
546.9737151252
 11
306.4669495378
 21
892.9737151252
  0
ARC
  5
485
100
AcDbEntity
  8
0
100
AcDbCircle
 62
3
  6
CONTINUOUS
 10
327.5067655788
 20
827.9737151252
 40
4.25
100
AcDbArc
 50
270.0
 51
90.0
  0
LINE
  5
486
100
AcDbEntity
  8
0
100
AcDbLine
 62
3
  6
CONTINUOUS
 10
322.5067655788
 20
832.2237151252
 11
327.5067655788
 21
832.2237151252
  0
ARC
  5
487
100
AcDbEntity
  8
0
100
AcDbCircle
 62
3
  6
CONTINUOUS
 10
322.5067655788
 20
827.9737151252
 40
4.25
100
AcDbArc
 50
90.0
 51
270.0
  0
LINE
  5
488
100
AcDbEntity
  8
0
100
AcDbLine
 62
3
  6
CONTINUOUS
 10
327.5067655788
 20
823.7237151252
 11
322.5067655788
 21
823.7237151252
  0
LINE
  5
489
100
AcDbEntity
  8
0
100
AcDbLine
 62
3
  6
CONTINUOUS
 10
327.5067655788
 20
607.7237151252
 11
322.5067655788
 21
607.7237151252
  0
ARC
  5
48A
100
AcDbEntity
  8
0
100
AcDbCircle
 62
3
  6
CONTINUOUS
 10
327.5067655788
 20
611.9737151252
 40
4.25
100
AcDbArc
 50
270.0
 51
90.0
  0
LINE
  5
48B
100
AcDbEntity
  8
0
100
AcDbLine
 62
3
  6
CONTINUOUS
 10
322.5067655788
 20
616.2237151252
 11
327.5067655788
 21
616.2237151252
  0
ARC
  5
48C
100
AcDbEntity
  8
0
100
AcDbCircle
 62
3
  6
CONTINUOUS
 10
322.5067655788
 20
611.9737151252
 40
4.25
100
AcDbArc
 50
90.0
 51
270.0
  0
ARC
  5
48D
100
AcDbEntity
  8
0
100
AcDbCircle
 62
3
  6
CONTINUOUS
 10
325.0067655788
 20
863.9737151252
 40
11.0
100
AcDbArc
 50
0.0
 51
180.0
  0
ARC
  5
48E
100
AcDbEntity
  8
0
100
AcDbCircle
 62
3
  6
CONTINUOUS
 10
325.0067655788
 20
863.9737151252
 40
11.0
100
AcDbArc
 50
180.0
 51
360.0
  0
ARC
  5
48F
100
AcDbEntity
  8
0
100
AcDbCircle
 62
3
  6
CONTINUOUS
 10
325.0067655788
 20
791.9737151252
 40
11.0
100
AcDbArc
 50
0.0
 51
180.0
  0
ARC
  5
490
100
AcDbEntity
  8
0
100
AcDbCircle
 62
3
  6
CONTINUOUS
 10
325.0067655788
 20
791.9737151252
 40
11.0
100
AcDbArc
 50
180.0
 51
360.0
  0
ARC
  5
491
100
AcDbEntity
  8
0
100
AcDbCircle
 62
3
  6
CONTINUOUS
 10
325.0067655788
 20
719.9737151252
 40
11.0
100
AcDbArc
 50
0.0
 51
180.0
  0
ARC
  5
492
100
AcDbEntity
  8
0
100
AcDbCircle
 62
3
  6
CONTINUOUS
 10
325.0067655788
 20
719.9737151252
 40
11.0
100
AcDbArc
 50
180.0
 51
360.0
  0
ARC
  5
493
100
AcDbEntity
  8
0
100
AcDbCircle
 62
3
  6
CONTINUOUS
 10
325.0067655788
 20
647.9737151252
 40
11.0
100
AcDbArc
 50
0.0
 51
180.0
  0
ARC
  5
494
100
AcDbEntity
  8
0
100
AcDbCircle
 62
3
  6
CONTINUOUS
 10
325.0067655788
 20
647.9737151252
 40
11.0
100
AcDbArc
 50
180.0
 51
360.0
  0
ARC
  5
495
100
AcDbEntity
  8
0
100
AcDbCircle
 62
3
  6
CONTINUOUS
 10
325.0067655788
 20
575.9737151252
 40
11.0
100
AcDbArc
 50
0.0
 51
180.0
  0
ARC
  5
496
100
AcDbEntity
  8
0
100
AcDbCircle
 62
3
  6
CONTINUOUS
 10
325.0067655788
 20
575.9737151252
 40
11.0
100
AcDbArc
 50
180.0
 51
360.0
  0
LINE
  5
497
100
AcDbEntity
  8
0
100
AcDbLine
 62
3
  6
CONTINUOUS
 10
370.3829466313
 20
539.9737151252
 11
368.5465816199
 21
539.9737151252
  0
LINE
  5
498
100
AcDbEntity
  8
0
100
AcDbLine
 62
3
  6
CONTINUOUS
 10
368.5465816199
 20
899.9737151252
 11
370.3829466313
 21
899.9737151252
  0
LINE
  5
499
100
AcDbEntity
  8
0
100
AcDbLine
 62
3
  6
CONTINUOUS
 10
457.854348199
 20
539.9737151252
 11
456.1795175231
 21
539.9737151252
  0
LINE
  5
49A
100
AcDbEntity
  8
0
100
AcDbLine
 62
3
  6
CONTINUOUS
 10
456.1795175231
 20
899.9737151252
 11
457.854348199
 21
899.9737151252
  0
LINE
  5
49B
100
AcDbEntity
  8
0
100
AcDbLine
 62
3
  6
CONTINUOUS
 10
545.4872841022
 20
539.9737151252
 11
543.6509190908
 21
539.9737151252
  0
LINE
  5
49C
100
AcDbEntity
  8
0
100
AcDbLine
 62
3
  6
CONTINUOUS
 10
543.6509190908
 20
899.9737151252
 11
545.4872841022
 21
899.9737151252
  0
LINE
  5
49D
100
AcDbEntity
  8
0
100
AcDbLine
 62
3
  6
CONTINUOUS
 10
633.0771113669
 20
539.9737151252
 11
630.798598464
 21
539.9737151252
  0
LINE
  5
49E
100
AcDbEntity
  8
0
100
AcDbLine
 62
3
  6
CONTINUOUS
 10
630.798598464
 20
899.9737151252
 11
633.0771113669
 21
899.9737151252
  0
LINE
  5
49F
100
AcDbEntity
  8
0
100
AcDbLine
 62
3
  6
CONTINUOUS
 10
720.3615313803
 20
539.9737151252
 11
717.7782870868
 21
539.9737151252
  0
LINE
  5
4A0
100
AcDbEntity
  8
0
100
AcDbLine
 62
3
  6
CONTINUOUS
 10
717.7782870868
 20
899.9737151252
 11
720.3615313803
 21
899.9737151252
  0
LINE
  5
4A1
100
AcDbEntity
  8
0
100
AcDbLine
 62
3
  6
CONTINUOUS
 10
807.3412200031
 20
539.9737151252
 11
805.0627071002
 21
539.9737151252
  0
LINE
  5
4A2
100
AcDbEntity
  8
0
100
AcDbLine
 62
3
  6
CONTINUOUS
 10
805.0627071002
 20
899.9737151252
 11
807.3412200031
 21
899.9737151252
  0
LINE
  5
4A3
100
AcDbEntity
  8
0
100
AcDbLine
 62
3
  6
CONTINUOUS
 10
807.3412200031
 20
539.9737151252
 11
862.0636572717
 21
539.9737151252
  0
LINE
  5
4A4
100
AcDbEntity
  8
0
100
AcDbLine
 62
3
  6
CONTINUOUS
 10
807.3412200031
 20
899.9737151252
 11
862.0636572717
 21
899.9737151252
  0
LINE
  5
4A5
100
AcDbEntity
  8
SURFACES
100
AcDbLine
 62
3
  6
CONTINUOUS
 10
720.3615313803
 20
899.9737151252
 11
805.0627071002
 21
899.9737151252
  0
LINE
  5
4A6
100
AcDbEntity
  8
SURFACES
100
AcDbLine
 62
3
  6
CONTINUOUS
 10
720.3615313803
 20
539.9737151252
 11
805.0627071002
 21
539.9737151252
  0
LINE
  5
4A7
100
AcDbEntity
  8
SURFACES
100
AcDbLine
 62
3
  6
CONTINUOUS
 10
633.0771113669
 20
899.9737151252
 11
717.7782870868
 21
899.9737151252
  0
LINE
  5
4A8
100
AcDbEntity
  8
SURFACES
100
AcDbLine
 62
3
  6
CONTINUOUS
 10
633.0771113669
 20
539.9737151252
 11
717.7782870868
 21
539.9737151252
  0
LINE
  5
4A9
100
AcDbEntity
  8
SURFACES
100
AcDbLine
 62
3
  6
CONTINUOUS
 10
545.4872841022
 20
899.9737151252
 11
630.798598464
 21
899.9737151252
  0
LINE
  5
4AA
100
AcDbEntity
  8
SURFACES
100
AcDbLine
 62
3
  6
CONTINUOUS
 10
545.4872841022
 20
539.9737151252
 11
630.798598464
 21
539.9737151252
  0
LINE
  5
4AB
100
AcDbEntity
  8
SURFACES
100
AcDbLine
 62
3
  6
CONTINUOUS
 10
457.854348199
 20
899.9737151252
 11
543.6509190908
 21
899.9737151252
  0
LINE
  5
4AC
100
AcDbEntity
  8
SURFACES
100
AcDbLine
 62
3
  6
CONTINUOUS
 10
457.854348199
 20
539.9737151252
 11
543.6509190908
 21
539.9737151252
  0
LINE
  5
4AD
100
AcDbEntity
  8
SURFACES
100
AcDbLine
 62
3
  6
CONTINUOUS
 10
370.3829466313
 20
899.9737151252
 11
456.1795175231
 21
899.9737151252
  0
LINE
  5
4AE
100
AcDbEntity
  8
SURFACES
100
AcDbLine
 62
3
  6
CONTINUOUS
 10
370.3829466313
 20
539.9737151252
 11
456.1795175231
 21
539.9737151252
  0
LINE
  5
4AF
100
AcDbEntity
  8
0
100
AcDbLine
 62
3
  6
CONTINUOUS
 10
313.4669495378
 20
899.9737151252
 11
368.5465816199
 21
899.9737151252
  0
LINE
  5
4B0
100
AcDbEntity
  8
0
100
AcDbLine
 62
3
  6
CONTINUOUS
 10
313.4669495378
 20
539.9737151252
 11
368.5465816199
 21
539.9737151252
  0
LINE
  5
4B1
100
AcDbEntity
  8
0
100
AcDbLine
 62
9
  6
CONTINUOUS
 10
370.3829466313
 20
899.9737151252
 11
370.3829466313
 21
539.9737151252
  0
LINE
  5
4B2
100
AcDbEntity
  8
0
100
AcDbLine
 62
9
  6
CONTINUOUS
 10
368.5465816199
 20
899.9737151252
 11
368.5465816199
 21
539.9737151252
  0
LINE
  5
4B3
100
AcDbEntity
  8
0
100
AcDbLine
 62
9
  6
CONTINUOUS
 10
633.0771113669
 20
899.9737151252
 11
633.0771113669
 21
539.9737151252
  0
LINE
  5
4B4
100
AcDbEntity
  8
0
100
AcDbLine
 62
9
  6
CONTINUOUS
 10
630.798598464
 20
899.9737151252
 11
630.798598464
 21
539.9737151252
  0
LINE
  5
4B5
100
AcDbEntity
  8
0
100
AcDbLine
 62
9
  6
CONTINUOUS
 10
545.4872841022
 20
899.9737151252
 11
545.4872841022
 21
539.9737151252
  0
LINE
  5
4B6
100
AcDbEntity
  8
0
100
AcDbLine
 62
9
  6
CONTINUOUS
 10
805.0627071002
 20
899.9737151252
 11
805.0627071002
 21
539.9737151252
  0
LINE
  5
4B7
100
AcDbEntity
  8
0
100
AcDbLine
 62
9
  6
CONTINUOUS
 10
720.3615313803
 20
899.9737151252
 11
720.3615313803
 21
539.9737151252
  0
LINE
  5
4B8
100
AcDbEntity
  8
0
100
AcDbLine
 62
9
  6
CONTINUOUS
 10
807.3412200031
 20
899.9737151252
 11
807.3412200031
 21
539.9737151252
  0
LINE
  5
4B9
100
AcDbEntity
  8
0
100
AcDbLine
 62
9
  6
CONTINUOUS
 10
543.6509190908
 20
899.9737151252
 11
543.6509190908
 21
539.9737151252
  0
LINE
  5
4BA
100
AcDbEntity
  8
0
100
AcDbLine
 62
9
  6
CONTINUOUS
 10
457.854348199
 20
899.9737151252
 11
457.854348199
 21
539.9737151252
  0
LINE
  5
4BB
100
AcDbEntity
  8
0
100
AcDbLine
 62
9
  6
CONTINUOUS
 10
717.7782870868
 20
899.9737151252
 11
717.7782870868
 21
539.9737151252
  0
LINE
  5
4BC
100
AcDbEntity
  8
0
100
AcDbLine
 62
9
  6
CONTINUOUS
 10
456.1795175231
 20
899.9737151252
 11
456.1795175231
 21
539.9737151252
  0
SPLINE
  5
4BD
100
AcDbEntity
  8
0
100
AcDbSpline
 62
7
  6
CONTINUOUS
 70
0
 71
3
 72
10
 73
6
 74
0
 42
0.0000001
 43
0.0000001
 44
0.0000000001
 40
0.0
 40
0.0
 40
0.0
 40
0.0
 40
0.2019941707
 40
0.4442209214
 40
1.0
 40
1.0
 40
1.0
 40
1.0
 10
1400.4910958416
 20
740.295668551
 30
0.0
 10
1400.665011823
 20
739.7205234571
 30
0.0
 10
1400.9574369344
 20
738.4287008523
 30
0.0
 10
1401.3770969406
 20
735.4824624701
 30
0.0
 10
1401.4883123393
 20
733.1042529486
 30
0.0
 10
1401.4883123393
 20
731.450996578
 30
0.0
  0
SPLINE
  5
4BE
100
AcDbEntity
  8
0
100
AcDbSpline
 62
7
  6
CONTINUOUS
 70
0
 71
3
 72
10
 73
6
 74
0
 42
0.0000001
 43
0.0000001
 44
0.0000000001
 40
0.0
 40
0.0
 40
0.0
 40
0.0
 40
0.2019941707
 40
0.4442209214
 40
1.0
 40
1.0
 40
1.0
 40
1.0
 10
1400.4910958416
 20
812.295668551
 30
0.0
 10
1400.665011823
 20
811.7205234571
 30
0.0
 10
1400.9574369344
 20
810.4287008523
 30
0.0
 10
1401.3770969406
 20
807.4824624701
 30
0.0
 10
1401.4883123393
 20
805.1042529486
 30
0.0
 10
1401.4883123393
 20
803.450996578
 30
0.0
  0
SPLINE
  5
4BF
100
AcDbEntity
  8
0
100
AcDbSpline
 62
7
  6
CONTINUOUS
 70
0
 71
3
 72
10
 73
6
 74
0
 42
0.0000001
 43
0.0000001
 44
0.0000000001
 40
0.0
 40
0.0
 40
0.0
 40
0.0
 40
0.2019941707
 40
0.4442209214
 40
1.0
 40
1.0
 40
1.0
 40
1.0
 10
1400.4910958416
 20
884.295668551
 30
0.0
 10
1400.665011823
 20
883.7205234571
 30
0.0
 10
1400.9574369344
 20
882.4287008523
 30
0.0
 10
1401.3770969406
 20
879.4824624701
 30
0.0
 10
1401.4883123393
 20
877.1042529486
 30
0.0
 10
1401.4883123393
 20
875.450996578
 30
0.0
  0
SPLINE
  5
4C0
100
AcDbEntity
  8
0
100
AcDbSpline
 62
7
  6
CONTINUOUS
 70
0
 71
3
 72
10
 73
6
 74
0
 42
0.0000001
 43
0.0000001
 44
0.0000000001
 40
0.0
 40
0.0
 40
0.0
 40
0.0
 40
0.2019941707
 40
0.4442209214
 40
1.0
 40
1.0
 40
1.0
 40
1.0
 10
1400.4910958416
 20
956.295668551
 30
0.0
 10
1400.665011823
 20
955.7205234571
 30
0.0
 10
1400.9574369344
 20
954.4287008523
 30
0.0
 10
1401.3770969406
 20
951.4824624701
 30
0.0
 10
1401.4883123393
 20
949.1042529486
 30
0.0
 10
1401.4883123393
 20
947.450996578
 30
0.0
  0
SPLINE
  5
4C1
100
AcDbEntity
  8
0
100
AcDbSpline
 62
7
  6
CONTINUOUS
 70
0
 71
3
 72
10
 73
6
 74
0
 42
0.0000001
 43
0.0000001
 44
0.0000000001
 40
0.0
 40
0.0
 40
0.0
 40
0.0
 40
0.2019941707
 40
0.4442209214
 40
1.0
 40
1.0
 40
1.0
 40
1.0
 10
1400.4910958416
 20
1028.295668551
 30
0.0
 10
1400.665011823
 20
1027.7205234571
 30
0.0
 10
1400.9574369344
 20
1026.4287008523
 30
0.0
 10
1401.3770969406
 20
1023.4824624701
 30
0.0
 10
1401.4883123393
 20
1021.1042529486
 30
0.0
 10
1401.4883123393
 20
1019.450996578
 30
0.0
  0
SPLINE
  5
4C2
100
AcDbEntity
  8
0
100
AcDbSpline
 62
7
  6
CONTINUOUS
 70
0
 71
3
 72
13
 73
9
 74
0
 42
0.0000001
 43
0.0000001
 44
0.0000000001
 40
0.0
 40
0.0
 40
0.0
 40
0.0
 40
0.0977061059
 40
0.2024703527
 40
0.316133208
 40
0.4391795323
 40
0.7094229002
 40
1.0
 40
1.0
 40
1.0
 40
1.0
 10
1362.8228204789
 20
720.6038778414
 30
0.0
 10
1363.2350986435
 20
720.7133335931
 30
0.0
 10
1364.0609043476
 20
721.0590745746
 30
0.0
 10
1365.1803007788
 20
721.8839830069
 30
0.0
 10
1366.1850395053
 20
722.9971830857
 30
0.0
 10
1367.3710283217
 20
724.87607894
 30
0.0
 10
1368.3780771229
 20
727.726263254
 30
0.0
 10
1368.6435447044
 20
730.1824094486
 30
0.0
 10
1368.6435447044
 20
731.450996578
 30
0.0
  0
SPLINE
  5
4C3
100
AcDbEntity
  8
0
100
AcDbSpline
 62
7
  6
CONTINUOUS
 70
0
 71
3
 72
13
 73
9
 74
0
 42
0.0000001
 43
0.0000001
 44
0.0000000001
 40
0.0
 40
0.0
 40
0.0
 40
0.0
 40
0.0977061059
 40
0.2024703527
 40
0.316133208
 40
0.4391795323
 40
0.7094229002
 40
1.0
 40
1.0
 40
1.0
 40
1.0
 10
1362.8228204789
 20
792.6038778414
 30
0.0
 10
1363.2350986435
 20
792.7133335931
 30
0.0
 10
1364.0609043476
 20
793.0590745746
 30
0.0
 10
1365.1803007788
 20
793.8839830069
 30
0.0
 10
1366.1850395053
 20
794.9971830857
 30
0.0
 10
1367.3710283217
 20
796.87607894
 30
0.0
 10
1368.3780771229
 20
799.726263254
 30
0.0
 10
1368.6435447044
 20
802.1824094486
 30
0.0
 10
1368.6435447044
 20
803.450996578
 30
0.0
  0
SPLINE
  5
4C4
100
AcDbEntity
  8
0
100
AcDbSpline
 62
7
  6
CONTINUOUS
 70
0
 71
3
 72
13
 73
9
 74
0
 42
0.0000001
 43
0.0000001
 44
0.0000000001
 40
0.0
 40
0.0
 40
0.0
 40
0.0
 40
0.0977061059
 40
0.2024703527
 40
0.316133208
 40
0.4391795323
 40
0.7094229002
 40
1.0
 40
1.0
 40
1.0
 40
1.0
 10
1362.8228204789
 20
864.6038778414
 30
0.0
 10
1363.2350986435
 20
864.7133335931
 30
0.0
 10
1364.0609043476
 20
865.0590745746
 30
0.0
 10
1365.1803007788
 20
865.8839830069
 30
0.0
 10
1366.1850395053
 20
866.9971830857
 30
0.0
 10
1367.3710283217
 20
868.87607894
 30
0.0
 10
1368.3780771229
 20
871.726263254
 30
0.0
 10
1368.6435447044
 20
874.1824094486
 30
0.0
 10
1368.6435447044
 20
875.450996578
 30
0.0
  0
SPLINE
  5
4C5
100
AcDbEntity
  8
0
100
AcDbSpline
 62
7
  6
CONTINUOUS
 70
0
 71
3
 72
13
 73
9
 74
0
 42
0.0000001
 43
0.0000001
 44
0.0000000001
 40
0.0
 40
0.0
 40
0.0
 40
0.0
 40
0.0977061059
 40
0.2024703527
 40
0.316133208
 40
0.4391795323
 40
0.7094229002
 40
1.0
 40
1.0
 40
1.0
 40
1.0
 10
1362.8228204789
 20
936.6038778414
 30
0.0
 10
1363.2350986435
 20
936.7133335931
 30
0.0
 10
1364.0609043476
 20
937.0590745746
 30
0.0
 10
1365.1803007788
 20
937.8839830069
 30
0.0
 10
1366.1850395053
 20
938.9971830857
 30
0.0
 10
1367.3710283217
 20
940.87607894
 30
0.0
 10
1368.3780771229
 20
943.726263254
 30
0.0
 10
1368.6435447044
 20
946.1824094486
 30
0.0
 10
1368.6435447044
 20
947.450996578
 30
0.0
  0
SPLINE
  5
4C6
100
AcDbEntity
  8
0
100
AcDbSpline
 62
7
  6
CONTINUOUS
 70
0
 71
3
 72
12
 73
8
 74
0
 42
0.0000001
 43
0.0000001
 44
0.0000000001
 40
0.0
 40
0.0
 40
0.0
 40
0.0
 40
0.2611030622
 40
0.5161020797
 40
0.7616206202
 40
0.8815668483
 40
1.0
 40
1.0
 40
1.0
 40
1.0
 10
1304.9044319604
 20
1019.450996578
 30
0.0
 10
1304.9044319604
 20
1018.1459327724
 30
0.0
 10
1304.4885409264
 20
1015.5463141217
 30
0.0
 10
1302.6819694197
 20
1012.1186942444
 30
0.0
 10
1300.3228327112
 20
1009.9881520037
 30
0.0
 10
1298.1301526674
 20
1008.9378396685
 30
0.0
 10
1296.966779818
 20
1008.6395926813
 30
0.0
 10
1296.3815032592
 20
1008.5508845709
 30
0.0
  0
ARC
  5
4C7
100
AcDbEntity
  8
0
100
AcDbCircle
 62
7
  6
CONTINUOUS
 10
1295.054340151
 20
1017.3057777202
 40
8.8549147919
100
AcDbArc
 50
274.3531830474
 51
278.6198970521
  0
SPLINE
  5
4C8
100
AcDbEntity
  8
0
100
AcDbSpline
 62
7
  6
CONTINUOUS
 70
0
 71
3
 72
13
 73
9
 74
0
 42
0.0000001
 43
0.0000001
 44
0.0000000001
 40
0.0
 40
0.0
 40
0.0
 40
0.0
 40
0.0977061059
 40
0.2024703527
 40
0.316133208
 40
0.4391795323
 40
0.7094229002
 40
1.0
 40
1.0
 40
1.0
 40
1.0
 10
1362.8228204789
 20
1008.6038778414
 30
0.0
 10
1363.2350986435
 20
1008.7133335931
 30
0.0
 10
1364.0609043476
 20
1009.0590745746
 30
0.0
 10
1365.1803007788
 20
1009.8839830069
 30
0.0
 10
1366.1850395053
 20
1010.9971830857
 30
0.0
 10
1367.3710283217
 20
1012.87607894
 30
0.0
 10
1368.3780771229
 20
1015.726263254
 30
0.0
 10
1368.6435447044
 20
1018.1824094486
 30
0.0
 10
1368.6435447044
 20
1019.450996578
 30
0.0
  0
SPLINE
  5
4C9
100
AcDbEntity
  8
0
100
AcDbSpline
 62
7
  6
CONTINUOUS
 70
0
 71
3
 72
12
 73
8
 74
0
 42
0.0000001
 43
0.0000001
 44
0.0000000001
 40
0.0
 40
0.0
 40
0.0
 40
0.0
 40
0.2611030622
 40
0.5161020797
 40
0.7616206202
 40
0.8815668483
 40
1.0
 40
1.0
 40
1.0
 40
1.0
 10
1304.9044319604
 20
947.450996578
 30
0.0
 10
1304.9044319604
 20
946.1459327724
 30
0.0
 10
1304.4885409264
 20
943.5463141217
 30
0.0
 10
1302.6819694197
 20
940.1186942444
 30
0.0
 10
1300.3228327112
 20
937.9881520037
 30
0.0
 10
1298.1301526674
 20
936.9378396685
 30
0.0
 10
1296.966779818
 20
936.6395926813
 30
0.0
 10
1296.3815032592
 20
936.5508845709
 30
0.0
  0
ARC
  5
4CA
100
AcDbEntity
  8
0
100
AcDbCircle
 62
7
  6
CONTINUOUS
 10
1295.054340151
 20
945.3057777203
 40
8.8549147919
100
AcDbArc
 50
274.3531830474
 51
278.6198970521
  0
SPLINE
  5
4CB
100
AcDbEntity
  8
0
100
AcDbSpline
 62
7
  6
CONTINUOUS
 70
0
 71
3
 72
12
 73
8
 74
0
 42
0.0000001
 43
0.0000001
 44
0.0000000001
 40
0.0
 40
0.0
 40
0.0
 40
0.0
 40
0.2611030622
 40
0.5161020797
 40
0.7616206202
 40
0.8815668483
 40
1.0
 40
1.0
 40
1.0
 40
1.0
 10
1304.9044319604
 20
875.450996578
 30
0.0
 10
1304.9044319604
 20
874.1459327724
 30
0.0
 10
1304.4885409264
 20
871.5463141217
 30
0.0
 10
1302.6819694197
 20
868.1186942444
 30
0.0
 10
1300.3228327112
 20
865.9881520037
 30
0.0
 10
1298.1301526674
 20
864.9378396685
 30
0.0
 10
1296.966779818
 20
864.6395926813
 30
0.0
 10
1296.3815032592
 20
864.5508845709
 30
0.0
  0
ARC
  5
4CC
100
AcDbEntity
  8
0
100
AcDbCircle
 62
7
  6
CONTINUOUS
 10
1295.054340151
 20
873.3057777201
 40
8.8549147918
100
AcDbArc
 50
274.3531830474
 51
278.6198970521
  0
SPLINE
  5
4CD
100
AcDbEntity
  8
0
100
AcDbSpline
 62
7
  6
CONTINUOUS
 70
0
 71
3
 72
12
 73
8
 74
0
 42
0.0000001
 43
0.0000001
 44
0.0000000001
 40
0.0
 40
0.0
 40
0.0
 40
0.0
 40
0.2611030622
 40
0.5161020797
 40
0.7616206202
 40
0.8815668483
 40
1.0
 40
1.0
 40
1.0
 40
1.0
 10
1304.9044319604
 20
803.450996578
 30
0.0
 10
1304.9044319604
 20
802.1459327724
 30
0.0
 10
1304.4885409264
 20
799.5463141217
 30
0.0
 10
1302.6819694197
 20
796.1186942444
 30
0.0
 10
1300.3228327112
 20
793.9881520037
 30
0.0
 10
1298.1301526674
 20
792.9378396685
 30
0.0
 10
1296.966779818
 20
792.6395926813
 30
0.0
 10
1296.3815032592
 20
792.5508845709
 30
0.0
  0
ARC
  5
4CE
100
AcDbEntity
  8
0
100
AcDbCircle
 62
7
  6
CONTINUOUS
 10
1295.054340151
 20
801.3057777202
 40
8.8549147918
100
AcDbArc
 50
274.3531830474
 51
278.6198970521
  0
ARC
  5
4CF
100
AcDbEntity
  8
0
100
AcDbCircle
 62
7
  6
CONTINUOUS
 10
1295.054340151
 20
733.5962154356
 40
8.8549147919
100
AcDbArc
 50
81.3801029479
 51
85.6468169526
  0
SPLINE
  5
4D0
100
AcDbEntity
  8
0
100
AcDbSpline
 62
7
  6
CONTINUOUS
 70
0
 71
3
 72
12
 73
8
 74
0
 42
0.0000001
 43
0.0000001
 44
0.0000000001
 40
0.0
 40
0.0
 40
0.0
 40
0.0
 40
0.1184331517
 40
0.2383793798
 40
0.4838979203
 40
0.7388969378
 40
1.0
 40
1.0
 40
1.0
 40
1.0
 10
1296.3815032592
 20
742.351108585
 30
0.0
 10
1296.966779818
 20
742.2624004746
 30
0.0
 10
1298.1301526674
 20
741.9641534874
 30
0.0
 10
1300.3228327112
 20
740.9138411522
 30
0.0
 10
1302.6819694197
 20
738.7832989115
 30
0.0
 10
1304.4885409264
 20
735.3556790342
 30
0.0
 10
1304.9044319604
 20
732.7560603835
 30
0.0
 10
1304.9044319604
 20
731.450996578
 30
0.0
  0
SPLINE
  5
4D1
100
AcDbEntity
  8
0
100
AcDbSpline
 62
7
  6
CONTINUOUS
 70
0
 71
3
 72
12
 73
8
 74
0
 42
0.0000001
 43
0.0000001
 44
0.0000000001
 40
0.0
 40
0.0
 40
0.0
 40
0.0
 40
0.2611030622
 40
0.5161020797
 40
0.7616206202
 40
0.8815668483
 40
1.0
 40
1.0
 40
1.0
 40
1.0
 10
1304.9044319604
 20
731.450996578
 30
0.0
 10
1304.9044319604
 20
730.1459327724
 30
0.0
 10
1304.4885409264
 20
727.5463141217
 30
0.0
 10
1302.6819694197
 20
724.1186942444
 30
0.0
 10
1300.3228327112
 20
721.9881520037
 30
0.0
 10
1298.1301526674
 20
720.9378396685
 30
0.0
 10
1296.966779818
 20
720.6395926813
 30
0.0
 10
1296.3815032592
 20
720.5508845709
 30
0.0
  0
ARC
  5
4D2
100
AcDbEntity
  8
0
100
AcDbCircle
 62
7
  6
CONTINUOUS
 10
1295.054340151
 20
729.3057777204
 40
8.8549147921
100
AcDbArc
 50
274.3531830474
 51
278.619897052
  0
SPLINE
  5
4D3
100
AcDbEntity
  8
0
100
AcDbSpline
 62
7
  6
CONTINUOUS
 70
0
 71
3
 72
13
 73
9
 74
0
 42
0.0000001
 43
0.0000001
 44
0.0000000001
 40
0.0
 40
0.0
 40
0.0
 40
0.0
 40
0.2905770998
 40
0.5608204677
 40
0.683866792
 40
0.7975296473
 40
0.9022938941
 40
1.0
 40
1.0
 40
1.0
 40
1.0
 10
1368.6435447044
 20
1019.450996578
 30
0.0
 10
1368.6435447044
 20
1020.7195837073
 30
0.0
 10
1368.3780771229
 20
1023.1757299019
 30
0.0
 10
1367.3710283217
 20
1026.0259142159
 30
0.0
 10
1366.1850395053
 20
1027.9048100702
 30
0.0
 10
1365.1803007788
 20
1029.018010149
 30
0.0
 10
1364.0609043476
 20
1029.8429185813
 30
0.0
 10
1363.2350986435
 20
1030.1886595628
 30
0.0
 10
1362.8228204789
 20
1030.2981153145
 30
0.0
  0
ARC
  5
4D4
100
AcDbEntity
  8
0
100
AcDbCircle
 62
7
  6
CONTINUOUS
 10
1295.054340151
 20
805.5962154355
 40
8.8549147921
100
AcDbArc
 50
81.3801029479
 51
85.6468169525
  0
SPLINE
  5
4D5
100
AcDbEntity
  8
0
100
AcDbSpline
 62
7
  6
CONTINUOUS
 70
0
 71
3
 72
12
 73
8
 74
0
 42
0.0000001
 43
0.0000001
 44
0.0000000001
 40
0.0
 40
0.0
 40
0.0
 40
0.0
 40
0.1184331517
 40
0.2383793798
 40
0.4838979203
 40
0.7388969378
 40
1.0
 40
1.0
 40
1.0
 40
1.0
 10
1296.3815032592
 20
814.351108585
 30
0.0
 10
1296.966779818
 20
814.2624004746
 30
0.0
 10
1298.1301526674
 20
813.9641534874
 30
0.0
 10
1300.3228327112
 20
812.9138411522
 30
0.0
 10
1302.6819694197
 20
810.7832989115
 30
0.0
 10
1304.4885409264
 20
807.3556790342
 30
0.0
 10
1304.9044319604
 20
804.7560603835
 30
0.0
 10
1304.9044319604
 20
803.450996578
 30
0.0
  0
SPLINE
  5
4D6
100
AcDbEntity
  8
0
100
AcDbSpline
 62
7
  6
CONTINUOUS
 70
0
 71
3
 72
13
 73
9
 74
0
 42
0.0000001
 43
0.0000001
 44
0.0000000001
 40
0.0
 40
0.0
 40
0.0
 40
0.0
 40
0.2905770998
 40
0.5608204677
 40
0.683866792
 40
0.7975296473
 40
0.9022938941
 40
1.0
 40
1.0
 40
1.0
 40
1.0
 10
1368.6435447044
 20
947.450996578
 30
0.0
 10
1368.6435447044
 20
948.7195837073
 30
0.0
 10
1368.3780771229
 20
951.1757299019
 30
0.0
 10
1367.3710283217
 20
954.0259142159
 30
0.0
 10
1366.1850395053
 20
955.9048100702
 30
0.0
 10
1365.1803007788
 20
957.018010149
 30
0.0
 10
1364.0609043476
 20
957.8429185813
 30
0.0
 10
1363.2350986435
 20
958.1886595628
 30
0.0
 10
1362.8228204789
 20
958.2981153145
 30
0.0
  0
SPLINE
  5
4D7
100
AcDbEntity
  8
0
100
AcDbSpline
 62
7
  6
CONTINUOUS
 70
0
 71
3
 72
13
 73
9
 74
0
 42
0.0000001
 43
0.0000001
 44
0.0000000001
 40
0.0
 40
0.0
 40
0.0
 40
0.0
 40
0.2905770998
 40
0.5608204677
 40
0.683866792
 40
0.7975296473
 40
0.9022938941
 40
1.0
 40
1.0
 40
1.0
 40
1.0
 10
1368.6435447044
 20
875.450996578
 30
0.0
 10
1368.6435447044
 20
876.7195837073
 30
0.0
 10
1368.3780771229
 20
879.1757299019
 30
0.0
 10
1367.3710283217
 20
882.0259142159
 30
0.0
 10
1366.1850395053
 20
883.9048100702
 30
0.0
 10
1365.1803007788
 20
885.018010149
 30
0.0
 10
1364.0609043476
 20
885.8429185813
 30
0.0
 10
1363.2350986435
 20
886.1886595628
 30
0.0
 10
1362.8228204789
 20
886.2981153145
 30
0.0
  0
SPLINE
  5
4D8
100
AcDbEntity
  8
0
100
AcDbSpline
 62
7
  6
CONTINUOUS
 70
0
 71
3
 72
13
 73
9
 74
0
 42
0.0000001
 43
0.0000001
 44
0.0000000001
 40
0.0
 40
0.0
 40
0.0
 40
0.0
 40
0.2905770998
 40
0.5608204677
 40
0.683866792
 40
0.7975296473
 40
0.9022938941
 40
1.0
 40
1.0
 40
1.0
 40
1.0
 10
1368.6435447044
 20
803.450996578
 30
0.0
 10
1368.6435447044
 20
804.7195837073
 30
0.0
 10
1368.3780771229
 20
807.1757299019
 30
0.0
 10
1367.3710283217
 20
810.0259142159
 30
0.0
 10
1366.1850395053
 20
811.9048100702
 30
0.0
 10
1365.1803007788
 20
813.018010149
 30
0.0
 10
1364.0609043476
 20
813.8429185813
 30
0.0
 10
1363.2350986435
 20
814.1886595628
 30
0.0
 10
1362.8228204789
 20
814.2981153145
 30
0.0
  0
ARC
  5
4D9
100
AcDbEntity
  8
0
100
AcDbCircle
 62
7
  6
CONTINUOUS
 10
1295.054340151
 20
877.5962154354
 40
8.8549147922
100
AcDbArc
 50
81.380102948
 51
85.6468169525
  0
SPLINE
  5
4DA
100
AcDbEntity
  8
0
100
AcDbSpline
 62
7
  6
CONTINUOUS
 70
0
 71
3
 72
12
 73
8
 74
0
 42
0.0000001
 43
0.0000001
 44
0.0000000001
 40
0.0
 40
0.0
 40
0.0
 40
0.0
 40
0.1184331517
 40
0.2383793798
 40
0.4838979203
 40
0.7388969378
 40
1.0
 40
1.0
 40
1.0
 40
1.0
 10
1296.3815032592
 20
886.351108585
 30
0.0
 10
1296.966779818
 20
886.2624004746
 30
0.0
 10
1298.1301526674
 20
885.9641534874
 30
0.0
 10
1300.3228327112
 20
884.9138411522
 30
0.0
 10
1302.6819694197
 20
882.7832989115
 30
0.0
 10
1304.4885409264
 20
879.3556790342
 30
0.0
 10
1304.9044319604
 20
876.7560603835
 30
0.0
 10
1304.9044319604
 20
875.450996578
 30
0.0
  0
SPLINE
  5
4DB
100
AcDbEntity
  8
0
100
AcDbSpline
 62
7
  6
CONTINUOUS
 70
0
 71
3
 72
13
 73
9
 74
0
 42
0.0000001
 43
0.0000001
 44
0.0000000001
 40
0.0
 40
0.0
 40
0.0
 40
0.0
 40
0.2905770998
 40
0.5608204677
 40
0.683866792
 40
0.7975296473
 40
0.9022938941
 40
1.0
 40
1.0
 40
1.0
 40
1.0
 10
1368.6435447044
 20
731.450996578
 30
0.0
 10
1368.6435447044
 20
732.7195837073
 30
0.0
 10
1368.3780771229
 20
735.1757299019
 30
0.0
 10
1367.3710283217
 20
738.0259142159
 30
0.0
 10
1366.1850395053
 20
739.9048100702
 30
0.0
 10
1365.1803007788
 20
741.018010149
 30
0.0
 10
1364.0609043476
 20
741.8429185813
 30
0.0
 10
1363.2350986435
 20
742.1886595628
 30
0.0
 10
1362.8228204789
 20
742.2981153145
 30
0.0
  0
ARC
  5
4DC
100
AcDbEntity
  8
0
100
AcDbCircle
 62
7
  6
CONTINUOUS
 10
1295.054340151
 20
949.5962154354
 40
8.8549147922
100
AcDbArc
 50
81.380102948
 51
85.6468169525
  0
SPLINE
  5
4DD
100
AcDbEntity
  8
0
100
AcDbSpline
 62
7
  6
CONTINUOUS
 70
0
 71
3
 72
12
 73
8
 74
0
 42
0.0000001
 43
0.0000001
 44
0.0000000001
 40
0.0
 40
0.0
 40
0.0
 40
0.0
 40
0.1184331517
 40
0.2383793798
 40
0.4838979203
 40
0.7388969378
 40
1.0
 40
1.0
 40
1.0
 40
1.0
 10
1296.3815032592
 20
958.351108585
 30
0.0
 10
1296.966779818
 20
958.2624004746
 30
0.0
 10
1298.1301526674
 20
957.9641534874
 30
0.0
 10
1300.3228327112
 20
956.9138411522
 30
0.0
 10
1302.6819694197
 20
954.7832989115
 30
0.0
 10
1304.4885409264
 20
951.3556790342
 30
0.0
 10
1304.9044319604
 20
948.7560603835
 30
0.0
 10
1304.9044319604
 20
947.450996578
 30
0.0
  0
SPLINE
  5
4DE
100
AcDbEntity
  8
0
100
AcDbSpline
 62
7
  6
CONTINUOUS
 70
0
 71
3
 72
10
 73
6
 74
0
 42
0.0000001
 43
0.0000001
 44
0.0000000001
 40
0.0
 40
0.0
 40
0.0
 40
0.0
 40
0.5557790786
 40
0.7980058293
 40
1.0
 40
1.0
 40
1.0
 40
1.0
 10
1401.4883123393
 20
1019.450996578
 30
0.0
 10
1401.4883123393
 20
1017.7977402073
 30
0.0
 10
1401.3770969406
 20
1015.4195306858
 30
0.0
 10
1400.9574369344
 20
1012.4732923036
 30
0.0
 10
1400.665011823
 20
1011.1814696988
 30
0.0
 10
1400.4910958416
 20
1010.6063246049
 30
0.0
  0
SPLINE
  5
4DF
100
AcDbEntity
  8
0
100
AcDbSpline
 62
7
  6
CONTINUOUS
 70
0
 71
3
 72
10
 73
6
 74
0
 42
0.0000001
 43
0.0000001
 44
0.0000000001
 40
0.0
 40
0.0
 40
0.0
 40
0.0
 40
0.5557790786
 40
0.7980058293
 40
1.0
 40
1.0
 40
1.0
 40
1.0
 10
1401.4883123393
 20
947.450996578
 30
0.0
 10
1401.4883123393
 20
945.7977402073
 30
0.0
 10
1401.3770969406
 20
943.4195306858
 30
0.0
 10
1400.9574369344
 20
940.4732923036
 30
0.0
 10
1400.665011823
 20
939.1814696988
 30
0.0
 10
1400.4910958416
 20
938.6063246049
 30
0.0
  0
ARC
  5
4E0
100
AcDbEntity
  8
0
100
AcDbCircle
 62
7
  6
CONTINUOUS
 10
1295.054340151
 20
1021.5962154352
 40
8.8549147923
100
AcDbArc
 50
81.380102948
 51
85.6468169525
  0
SPLINE
  5
4E1
100
AcDbEntity
  8
0
100
AcDbSpline
 62
7
  6
CONTINUOUS
 70
0
 71
3
 72
12
 73
8
 74
0
 42
0.0000001
 43
0.0000001
 44
0.0000000001
 40
0.0
 40
0.0
 40
0.0
 40
0.0
 40
0.1184331517
 40
0.2383793798
 40
0.4838979203
 40
0.7388969378
 40
1.0
 40
1.0
 40
1.0
 40
1.0
 10
1296.3815032592
 20
1030.351108585
 30
0.0
 10
1296.966779818
 20
1030.2624004746
 30
0.0
 10
1298.1301526674
 20
1029.9641534874
 30
0.0
 10
1300.3228327112
 20
1028.9138411522
 30
0.0
 10
1302.6819694197
 20
1026.7832989115
 30
0.0
 10
1304.4885409264
 20
1023.3556790342
 30
0.0
 10
1304.9044319604
 20
1020.7560603835
 30
0.0
 10
1304.9044319604
 20
1019.450996578
 30
0.0
  0
SPLINE
  5
4E2
100
AcDbEntity
  8
0
100
AcDbSpline
 62
7
  6
CONTINUOUS
 70
0
 71
3
 72
10
 73
6
 74
0
 42
0.0000001
 43
0.0000001
 44
0.0000000001
 40
0.0
 40
0.0
 40
0.0
 40
0.0
 40
0.5557790786
 40
0.7980058293
 40
1.0
 40
1.0
 40
1.0
 40
1.0
 10
1401.4883123393
 20
875.450996578
 30
0.0
 10
1401.4883123393
 20
873.7977402073
 30
0.0
 10
1401.3770969406
 20
871.4195306858
 30
0.0
 10
1400.9574369344
 20
868.4732923036
 30
0.0
 10
1400.665011823
 20
867.1814696988
 30
0.0
 10
1400.4910958416
 20
866.6063246049
 30
0.0
  0
SPLINE
  5
4E3
100
AcDbEntity
  8
0
100
AcDbSpline
 62
7
  6
CONTINUOUS
 70
0
 71
3
 72
10
 73
6
 74
0
 42
0.0000001
 43
0.0000001
 44
0.0000000001
 40
0.0
 40
0.0
 40
0.0
 40
0.0
 40
0.5557790786
 40
0.7980058293
 40
1.0
 40
1.0
 40
1.0
 40
1.0
 10
1401.4883123393
 20
803.450996578
 30
0.0
 10
1401.4883123393
 20
801.7977402073
 30
0.0
 10
1401.3770969406
 20
799.4195306858
 30
0.0
 10
1400.9574369344
 20
796.4732923036
 30
0.0
 10
1400.665011823
 20
795.1814696988
 30
0.0
 10
1400.4910958416
 20
794.6063246049
 30
0.0
  0
SPLINE
  5
4E4
100
AcDbEntity
  8
0
100
AcDbSpline
 62
7
  6
CONTINUOUS
 70
0
 71
3
 72
10
 73
6
 74
0
 42
0.0000001
 43
0.0000001
 44
0.0000000001
 40
0.0
 40
0.0
 40
0.0
 40
0.0
 40
0.5557790786
 40
0.7980058293
 40
1.0
 40
1.0
 40
1.0
 40
1.0
 10
1401.4883123393
 20
731.450996578
 30
0.0
 10
1401.4883123393
 20
729.7977402073
 30
0.0
 10
1401.3770969406
 20
727.4195306858
 30
0.0
 10
1400.9574369344
 20
724.4732923036
 30
0.0
 10
1400.665011823
 20
723.1814696988
 30
0.0
 10
1400.4910958416
 20
722.6063246049
 30
0.0
  0
LINE
  5
4E5
100
AcDbEntity
  8
SURFACES
100
AcDbLine
 62
3
  6
CONTINUOUS
 10
1411.64220969
 20
695.450996578
 11
1411.4903069148
 21
695.450996578
  0
LINE
  5
4E6
100
AcDbEntity
  8
SURFACES
100
AcDbLine
 62
3
  6
CONTINUOUS
 10
1411.6422096902
 20
1055.450996578
 11
1411.6422096902
 21
695.450996578
  0
SPLINE
  5
4E7
100
AcDbEntity
  8
0
100
AcDbSpline
 62
3
  6
CONTINUOUS
 70
0
 71
3
 72
17
 73
13
 74
0
 42
0.0000001
 43
0.0000001
 44
0.0000000001
 40
0.0
 40
0.0
 40
0.0
 40
0.0
 40
0.0211715793
 40
0.0457476418
 40
0.0759055425
 40
0.1126894075
 40
0.2072029206
 40
0.3288204859
 40
0.4741876708
 40
0.6384732746
 40
0.8158790173
 40
1.0
 40
1.0
 40
1.0
 40
1.0
 10
1401.9528509453
 20
720.4510018463
 30
0.0
 10
1401.8705762158
 20
720.4510018463
 30
0.0
 10
1401.6916160981
 20
720.4939458341
 30
0.0
 10
1401.4476931347
 20
720.6676063652
 30
0.0
 10
1401.2149226663
 20
720.9393892856
 30
0.0
 10
1400.8888510431
 20
721.4775836248
 30
0.0
 10
1400.5301500926
 20
722.3985673153
 30
0.0
 10
1400.1734007857
 20
723.7583947819
 30
0.0
 10
1399.8791775121
 20
725.4100033076
 30
0.0
 10
1399.6593683833
 20
727.2907587943
 30
0.0
 10
1399.5237286968
 20
729.3303628472
 30
0.0
 10
1399.4933409389
 20
730.7354852873
 30
0.0
 10
1399.4933409389
 20
731.450996578
 30
0.0
  0
SPLINE
  5
4E8
100
AcDbEntity
  8
0
100
AcDbSpline
 62
3
  6
CONTINUOUS
 70
0
 71
3
 72
17
 73
13
 74
0
 42
0.0000001
 43
0.0000001
 44
0.0000000001
 40
0.0
 40
0.0
 40
0.0
 40
0.0
 40
0.1841209827
 40
0.3615267254
 40
0.5258123292
 40
0.6711795141
 40
0.7927970794
 40
0.8873105925
 40
0.9240944575
 40
0.9542523582
 40
0.9788284207
 40
1.0
 40
1.0
 40
1.0
 40
1.0
 10
1399.4933409389
 20
1019.450996578
 30
0.0
 10
1399.4933409389
 20
1020.1665078686
 30
0.0
 10
1399.5237286968
 20
1021.5716303087
 30
0.0
 10
1399.6593683833
 20
1023.6112343616
 30
0.0
 10
1399.8791775121
 20
1025.4919898483
 30
0.0
 10
1400.1734007857
 20
1027.143598374
 30
0.0
 10
1400.5301500926
 20
1028.5034258406
 30
0.0
 10
1400.8888510431
 20
1029.4244095311
 30
0.0
 10
1401.2149226663
 20
1029.9626038703
 30
0.0
 10
1401.4476931347
 20
1030.2343867907
 30
0.0
 10
1401.6916160981
 20
1030.4080473218
 30
0.0
 10
1401.8705762158
 20
1030.4509913096
 30
0.0
 10
1401.9528509453
 20
1030.4509913096
 30
0.0
  0
SPLINE
  5
4E9
100
AcDbEntity
  8
0
100
AcDbSpline
 62
3
  6
CONTINUOUS
 70
0
 71
3
 72
17
 73
13
 74
0
 42
0.0000001
 43
0.0000001
 44
0.0000000001
 40
0.0
 40
0.0
 40
0.0
 40
0.0
 40
0.1841209827
 40
0.3615267254
 40
0.5258123292
 40
0.6711795141
 40
0.7927970794
 40
0.8873105925
 40
0.9240944575
 40
0.9542523582
 40
0.9788284207
 40
1.0
 40
1.0
 40
1.0
 40
1.0
 10
1399.4933409389
 20
947.450996578
 30
0.0
 10
1399.4933409389
 20
948.1665078686
 30
0.0
 10
1399.5237286968
 20
949.5716303087
 30
0.0
 10
1399.6593683833
 20
951.6112343616
 30
0.0
 10
1399.8791775121
 20
953.4919898483
 30
0.0
 10
1400.1734007857
 20
955.143598374
 30
0.0
 10
1400.5301500926
 20
956.5034258406
 30
0.0
 10
1400.8888510431
 20
957.4244095311
 30
0.0
 10
1401.2149226663
 20
957.9626038703
 30
0.0
 10
1401.4476931347
 20
958.2343867907
 30
0.0
 10
1401.6916160981
 20
958.4080473218
 30
0.0
 10
1401.8705762158
 20
958.4509913096
 30
0.0
 10
1401.9528509453
 20
958.4509913096
 30
0.0
  0
SPLINE
  5
4EA
100
AcDbEntity
  8
0
100
AcDbSpline
 62
3
  6
CONTINUOUS
 70
0
 71
3
 72
17
 73
13
 74
0
 42
0.0000001
 43
0.0000001
 44
0.0000000001
 40
0.0
 40
0.0
 40
0.0
 40
0.0
 40
0.1841209827
 40
0.3615267254
 40
0.5258123292
 40
0.6711795141
 40
0.7927970794
 40
0.8873105925
 40
0.9240944575
 40
0.9542523582
 40
0.9788284207
 40
1.0
 40
1.0
 40
1.0
 40
1.0
 10
1399.4933409389
 20
875.450996578
 30
0.0
 10
1399.4933409389
 20
876.1665078686
 30
0.0
 10
1399.5237286968
 20
877.5716303087
 30
0.0
 10
1399.6593683833
 20
879.6112343616
 30
0.0
 10
1399.8791775121
 20
881.4919898483
 30
0.0
 10
1400.1734007857
 20
883.143598374
 30
0.0
 10
1400.5301500926
 20
884.5034258406
 30
0.0
 10
1400.8888510431
 20
885.4244095311
 30
0.0
 10
1401.2149226663
 20
885.9626038703
 30
0.0
 10
1401.4476931347
 20
886.2343867907
 30
0.0
 10
1401.6916160981
 20
886.4080473218
 30
0.0
 10
1401.8705762158
 20
886.4509913096
 30
0.0
 10
1401.9528509453
 20
886.4509913096
 30
0.0
  0
SPLINE
  5
4EB
100
AcDbEntity
  8
0
100
AcDbSpline
 62
3
  6
CONTINUOUS
 70
0
 71
3
 72
17
 73
13
 74
0
 42
0.0000001
 43
0.0000001
 44
0.0000000001
 40
0.0
 40
0.0
 40
0.0
 40
0.0
 40
0.1841209827
 40
0.3615267254
 40
0.5258123292
 40
0.6711795141
 40
0.7927970794
 40
0.8873105925
 40
0.9240944575
 40
0.9542523582
 40
0.9788284207
 40
1.0
 40
1.0
 40
1.0
 40
1.0
 10
1399.4933409389
 20
803.450996578
 30
0.0
 10
1399.4933409389
 20
804.1665078686
 30
0.0
 10
1399.5237286968
 20
805.5716303087
 30
0.0
 10
1399.6593683833
 20
807.6112343616
 30
0.0
 10
1399.8791775121
 20
809.4919898483
 30
0.0
 10
1400.1734007857
 20
811.143598374
 30
0.0
 10
1400.5301500926
 20
812.5034258406
 30
0.0
 10
1400.8888510431
 20
813.4244095311
 30
0.0
 10
1401.2149226663
 20
813.9626038703
 30
0.0
 10
1401.4476931347
 20
814.2343867907
 30
0.0
 10
1401.6916160981
 20
814.4080473218
 30
0.0
 10
1401.8705762158
 20
814.4509913096
 30
0.0
 10
1401.9528509453
 20
814.4509913096
 30
0.0
  0
SPLINE
  5
4EC
100
AcDbEntity
  8
0
100
AcDbSpline
 62
3
  6
CONTINUOUS
 70
0
 71
3
 72
17
 73
13
 74
0
 42
0.0000001
 43
0.0000001
 44
0.0000000001
 40
0.0
 40
0.0
 40
0.0
 40
0.0
 40
0.1841209827
 40
0.3615267254
 40
0.5258123292
 40
0.6711795141
 40
0.7927970794
 40
0.8873105925
 40
0.9240944575
 40
0.9542523582
 40
0.9788284207
 40
1.0
 40
1.0
 40
1.0
 40
1.0
 10
1399.4933409389
 20
731.450996578
 30
0.0
 10
1399.4933409389
 20
732.1665078686
 30
0.0
 10
1399.5237286968
 20
733.5716303087
 30
0.0
 10
1399.6593683833
 20
735.6112343616
 30
0.0
 10
1399.8791775121
 20
737.4919898483
 30
0.0
 10
1400.1734007857
 20
739.143598374
 30
0.0
 10
1400.5301500926
 20
740.5034258406
 30
0.0
 10
1400.8888510431
 20
741.4244095311
 30
0.0
 10
1401.2149226663
 20
741.9626038703
 30
0.0
 10
1401.4476931347
 20
742.2343867907
 30
0.0
 10
1401.6916160981
 20
742.4080473218
 30
0.0
 10
1401.8705762158
 20
742.4509913096
 30
0.0
 10
1401.9528509453
 20
742.4509913096
 30
0.0
  0
SPLINE
  5
4ED
100
AcDbEntity
  8
0
100
AcDbSpline
 62
3
  6
CONTINUOUS
 70
0
 71
3
 72
13
 73
9
 74
0
 42
0.0000001
 43
0.0000001
 44
0.0000000001
 40
0.0
 40
0.0
 40
0.0
 40
0.0
 40
0.2976274105
 40
0.569531085
 40
0.6908329443
 40
0.8015169284
 40
0.9033287474
 40
1.0
 40
1.0
 40
1.0
 40
1.0
 10
1357.0011351123
 20
1019.450996578
 30
0.0
 10
1357.0011351123
 20
1018.0366892428
 30
0.0
 10
1357.3269237435
 20
1015.3199980197
 30
0.0
 10
1358.5698197242
 20
1012.220940171
 30
0.0
 10
1360.0255005551
 20
1010.3021425312
 30
0.0
 10
1361.2387066435
 20
1009.2580056011
 30
0.0
 10
1362.5733975806
 20
1008.6023181547
 30
0.0
 10
1363.5222386406
 20
1008.4510018463
 30
0.0
 10
1363.9816145477
 20
1008.4510018463
 30
0.0
  0
SPLINE
  5
4EE
100
AcDbEntity
  8
0
100
AcDbSpline
 62
3
  6
CONTINUOUS
 70
0
 71
3
 72
13
 73
9
 74
0
 42
0.0000001
 43
0.0000001
 44
0.0000000001
 40
0.0
 40
0.0
 40
0.0
 40
0.0
 40
0.2976274105
 40
0.569531085
 40
0.6908329443
 40
0.8015169284
 40
0.9033287474
 40
1.0
 40
1.0
 40
1.0
 40
1.0
 10
1357.0011351123
 20
947.450996578
 30
0.0
 10
1357.0011351123
 20
946.0366892428
 30
0.0
 10
1357.3269237435
 20
943.3199980197
 30
0.0
 10
1358.5698197242
 20
940.220940171
 30
0.0
 10
1360.0255005551
 20
938.3021425312
 30
0.0
 10
1361.2387066435
 20
937.2580056011
 30
0.0
 10
1362.5733975806
 20
936.6023181547
 30
0.0
 10
1363.5222386406
 20
936.4510018463
 30
0.0
 10
1363.9816145477
 20
936.4510018463
 30
0.0
  0
SPLINE
  5
4EF
100
AcDbEntity
  8
0
100
AcDbSpline
 62
3
  6
CONTINUOUS
 70
0
 71
3
 72
13
 73
9
 74
0
 42
0.0000001
 43
0.0000001
 44
0.0000000001
 40
0.0
 40
0.0
 40
0.0
 40
0.0
 40
0.2976274105
 40
0.569531085
 40
0.6908329443
 40
0.8015169284
 40
0.9033287474
 40
1.0
 40
1.0
 40
1.0
 40
1.0
 10
1357.0011351123
 20
875.450996578
 30
0.0
 10
1357.0011351123
 20
874.0366892428
 30
0.0
 10
1357.3269237435
 20
871.3199980197
 30
0.0
 10
1358.5698197242
 20
868.220940171
 30
0.0
 10
1360.0255005551
 20
866.3021425312
 30
0.0
 10
1361.2387066435
 20
865.2580056011
 30
0.0
 10
1362.5733975806
 20
864.6023181547
 30
0.0
 10
1363.5222386406
 20
864.4510018463
 30
0.0
 10
1363.9816145477
 20
864.4510018463
 30
0.0
  0
SPLINE
  5
4F0
100
AcDbEntity
  8
0
100
AcDbSpline
 62
3
  6
CONTINUOUS
 70
0
 71
3
 72
13
 73
9
 74
0
 42
0.0000001
 43
0.0000001
 44
0.0000000001
 40
0.0
 40
0.0
 40
0.0
 40
0.0
 40
0.2976274105
 40
0.569531085
 40
0.6908329443
 40
0.8015169284
 40
0.9033287474
 40
1.0
 40
1.0
 40
1.0
 40
1.0
 10
1357.0011351123
 20
803.450996578
 30
0.0
 10
1357.0011351123
 20
802.0366892428
 30
0.0
 10
1357.3269237435
 20
799.3199980197
 30
0.0
 10
1358.5698197242
 20
796.220940171
 30
0.0
 10
1360.0255005551
 20
794.3021425312
 30
0.0
 10
1361.2387066435
 20
793.2580056011
 30
0.0
 10
1362.5733975806
 20
792.6023181547
 30
0.0
 10
1363.5222386406
 20
792.4510018463
 30
0.0
 10
1363.9816145477
 20
792.4510018463
 30
0.0
  0
SPLINE
  5
4F1
100
AcDbEntity
  8
0
100
AcDbSpline
 62
3
  6
CONTINUOUS
 70
0
 71
3
 72
13
 73
9
 74
0
 42
0.0000001
 43
0.0000001
 44
0.0000000001
 40
0.0
 40
0.0
 40
0.0
 40
0.0
 40
0.2976274105
 40
0.569531085
 40
0.6908329443
 40
0.8015169284
 40
0.9033287474
 40
1.0
 40
1.0
 40
1.0
 40
1.0
 10
1357.0011351123
 20
731.450996578
 30
0.0
 10
1357.0011351123
 20
730.0366892428
 30
0.0
 10
1357.3269237435
 20
727.3199980197
 30
0.0
 10
1358.5698197242
 20
724.220940171
 30
0.0
 10
1360.0255005551
 20
722.3021425312
 30
0.0
 10
1361.2387066435
 20
721.2580056011
 30
0.0
 10
1362.5733975806
 20
720.6023181547
 30
0.0
 10
1363.5222386406
 20
720.4510018463
 30
0.0
 10
1363.9816145477
 20
720.4510018463
 30
0.0
  0
SPLINE
  5
4F2
100
AcDbEntity
  8
0
100
AcDbSpline
 62
3
  6
CONTINUOUS
 70
0
 71
3
 72
13
 73
9
 74
0
 42
0.0000001
 43
0.0000001
 44
0.0000000001
 40
0.0
 40
0.0
 40
0.0
 40
0.0
 40
0.2619261882
 40
0.5166593087
 40
0.6406679324
 40
0.7621311893
 40
0.8816096454
 40
1.0
 40
1.0
 40
1.0
 40
1.0
 10
1286.5478010343
 20
1019.450996578
 30
0.0
 10
1286.5478010343
 20
1020.8762402214
 30
0.0
 10
1287.0407665071
 20
1023.712154334
 30
0.0
 10
1288.8569290614
 20
1026.7890999215
 30
0.0
 10
1290.8716284584
 20
1028.6432522258
 30
0.0
 10
1292.5872548746
 20
1029.6725595929
 30
0.0
 10
1294.4517451282
 20
1030.3075865544
 30
0.0
 10
1295.7504881826
 20
1030.4509913096
 30
0.0
 10
1296.3946967726
 20
1030.4509913096
 30
0.0
  0
SPLINE
  5
4F3
100
AcDbEntity
  8
0
100
AcDbSpline
 62
3
  6
CONTINUOUS
 70
0
 71
3
 72
13
 73
9
 74
0
 42
0.0000001
 43
0.0000001
 44
0.0000000001
 40
0.0
 40
0.0
 40
0.0
 40
0.0
 40
0.2619261882
 40
0.5166593087
 40
0.6406679324
 40
0.7621311893
 40
0.8816096454
 40
1.0
 40
1.0
 40
1.0
 40
1.0
 10
1286.5478010343
 20
947.450996578
 30
0.0
 10
1286.5478010343
 20
948.8762402214
 30
0.0
 10
1287.0407665071
 20
951.712154334
 30
0.0
 10
1288.8569290614
 20
954.7890999215
 30
0.0
 10
1290.8716284584
 20
956.6432522258
 30
0.0
 10
1292.5872548746
 20
957.6725595929
 30
0.0
 10
1294.4517451282
 20
958.3075865544
 30
0.0
 10
1295.7504881826
 20
958.4509913096
 30
0.0
 10
1296.3946967726
 20
958.4509913096
 30
0.0
  0
SPLINE
  5
4F4
100
AcDbEntity
  8
0
100
AcDbSpline
 62
3
  6
CONTINUOUS
 70
0
 71
3
 72
13
 73
9
 74
0
 42
0.0000001
 43
0.0000001
 44
0.0000000001
 40
0.0
 40
0.0
 40
0.0
 40
0.0
 40
0.2619261882
 40
0.5166593087
 40
0.6406679324
 40
0.7621311893
 40
0.8816096454
 40
1.0
 40
1.0
 40
1.0
 40
1.0
 10
1286.5478010343
 20
875.450996578
 30
0.0
 10
1286.5478010343
 20
876.8762402214
 30
0.0
 10
1287.0407665071
 20
879.712154334
 30
0.0
 10
1288.8569290614
 20
882.7890999215
 30
0.0
 10
1290.8716284584
 20
884.6432522258
 30
0.0
 10
1292.5872548746
 20
885.6725595929
 30
0.0
 10
1294.4517451282
 20
886.3075865544
 30
0.0
 10
1295.7504881826
 20
886.4509913096
 30
0.0
 10
1296.3946967726
 20
886.4509913096
 30
0.0
  0
SPLINE
  5
4F5
100
AcDbEntity
  8
0
100
AcDbSpline
 62
3
  6
CONTINUOUS
 70
0
 71
3
 72
13
 73
9
 74
0
 42
0.0000001
 43
0.0000001
 44
0.0000000001
 40
0.0
 40
0.0
 40
0.0
 40
0.0
 40
0.2619261882
 40
0.5166593087
 40
0.6406679324
 40
0.7621311893
 40
0.8816096454
 40
1.0
 40
1.0
 40
1.0
 40
1.0
 10
1286.5478010343
 20
803.450996578
 30
0.0
 10
1286.5478010343
 20
804.8762402214
 30
0.0
 10
1287.0407665071
 20
807.712154334
 30
0.0
 10
1288.8569290614
 20
810.7890999215
 30
0.0
 10
1290.8716284584
 20
812.6432522258
 30
0.0
 10
1292.5872548746
 20
813.6725595929
 30
0.0
 10
1294.4517451282
 20
814.3075865544
 30
0.0
 10
1295.7504881826
 20
814.4509913096
 30
0.0
 10
1296.3946967726
 20
814.4509913096
 30
0.0
  0
SPLINE
  5
4F6
100
AcDbEntity
  8
0
100
AcDbSpline
 62
3
  6
CONTINUOUS
 70
0
 71
3
 72
13
 73
9
 74
0
 42
0.0000001
 43
0.0000001
 44
0.0000000001
 40
0.0
 40
0.0
 40
0.0
 40
0.0
 40
0.2619261882
 40
0.5166593087
 40
0.6406679324
 40
0.7621311893
 40
0.8816096454
 40
1.0
 40
1.0
 40
1.0
 40
1.0
 10
1286.5478010343
 20
731.450996578
 30
0.0
 10
1286.5478010343
 20
732.8762402214
 30
0.0
 10
1287.0407665071
 20
735.712154334
 30
0.0
 10
1288.8569290614
 20
738.7890999215
 30
0.0
 10
1290.8716284584
 20
740.6432522258
 30
0.0
 10
1292.5872548746
 20
741.6725595929
 30
0.0
 10
1294.4517451282
 20
742.3075865544
 30
0.0
 10
1295.7504881826
 20
742.4509913096
 30
0.0
 10
1296.3946967726
 20
742.4509913096
 30
0.0
  0
ARC
  5
4F7
100
AcDbEntity
  8
0
100
AcDbCircle
 62
3
  6
CONTINUOUS
 10
1200.2393850315
 20
1048.450996578
 40
7.0
100
AcDbArc
 50
90.0
 51
180.0
  0
ARC
  5
4F8
100
AcDbEntity
  8
0
100
AcDbCircle
 62
3
  6
CONTINUOUS
 10
1200.2393850315
 20
702.450996578
 40
7.0
100
AcDbArc
 50
180.0
 51
270.0
  0
LINE
  5
4F9
100
AcDbEntity
  8
0
100
AcDbLine
 62
3
  6
CONTINUOUS
 10
1193.2393850315
 20
702.450996578
 11
1193.2393850315
 21
1048.450996578
  0
ARC
  5
4FA
100
AcDbEntity
  8
0
100
AcDbCircle
 62
3
  6
CONTINUOUS
 10
1214.2792010725
 20
983.450996578
 40
4.25
100
AcDbArc
 50
270.0
 51
90.0
  0
LINE
  5
4FB
100
AcDbEntity
  8
0
100
AcDbLine
 62
3
  6
CONTINUOUS
 10
1209.2792010725
 20
987.700996578
 11
1214.2792010725
 21
987.700996578
  0
ARC
  5
4FC
100
AcDbEntity
  8
0
100
AcDbCircle
 62
3
  6
CONTINUOUS
 10
1209.2792010725
 20
983.450996578
 40
4.25
100
AcDbArc
 50
90.0
 51
270.0
  0
LINE
  5
4FD
100
AcDbEntity
  8
0
100
AcDbLine
 62
3
  6
CONTINUOUS
 10
1214.2792010725
 20
979.200996578
 11
1209.2792010725
 21
979.200996578
  0
LINE
  5
4FE
100
AcDbEntity
  8
0
100
AcDbLine
 62
3
  6
CONTINUOUS
 10
1214.2792010725
 20
763.200996578
 11
1209.2792010725
 21
763.200996578
  0
ARC
  5
4FF
100
AcDbEntity
  8
0
100
AcDbCircle
 62
3
  6
CONTINUOUS
 10
1214.2792010725
 20
767.450996578
 40
4.25
100
AcDbArc
 50
270.0
 51
90.0
  0
LINE
  5
500
100
AcDbEntity
  8
0
100
AcDbLine
 62
3
  6
CONTINUOUS
 10
1209.2792010725
 20
771.700996578
 11
1214.2792010725
 21
771.700996578
  0
ARC
  5
501
100
AcDbEntity
  8
0
100
AcDbCircle
 62
3
  6
CONTINUOUS
 10
1209.2792010725
 20
767.450996578
 40
4.25
100
AcDbArc
 50
90.0
 51
270.0
  0
ARC
  5
502
100
AcDbEntity
  8
0
100
AcDbCircle
 62
3
  6
CONTINUOUS
 10
1211.7792010725
 20
1019.450996578
 40
11.0
100
AcDbArc
 50
0.0
 51
180.0
  0
ARC
  5
503
100
AcDbEntity
  8
0
100
AcDbCircle
 62
3
  6
CONTINUOUS
 10
1211.7792010725
 20
1019.450996578
 40
11.0
100
AcDbArc
 50
180.0
 51
360.0
  0
ARC
  5
504
100
AcDbEntity
  8
0
100
AcDbCircle
 62
3
  6
CONTINUOUS
 10
1211.7792010725
 20
947.450996578
 40
11.0
100
AcDbArc
 50
0.0
 51
180.0
  0
ARC
  5
505
100
AcDbEntity
  8
0
100
AcDbCircle
 62
3
  6
CONTINUOUS
 10
1211.7792010725
 20
947.450996578
 40
11.0
100
AcDbArc
 50
180.0
 51
360.0
  0
ARC
  5
506
100
AcDbEntity
  8
0
100
AcDbCircle
 62
3
  6
CONTINUOUS
 10
1211.7792010725
 20
875.450996578
 40
11.0
100
AcDbArc
 50
0.0
 51
180.0
  0
ARC
  5
507
100
AcDbEntity
  8
0
100
AcDbCircle
 62
3
  6
CONTINUOUS
 10
1211.7792010725
 20
875.450996578
 40
11.0
100
AcDbArc
 50
180.0
 51
360.0
  0
ARC
  5
508
100
AcDbEntity
  8
0
100
AcDbCircle
 62
3
  6
CONTINUOUS
 10
1211.7792010725
 20
803.450996578
 40
11.0
100
AcDbArc
 50
0.0
 51
180.0
  0
ARC
  5
509
100
AcDbEntity
  8
0
100
AcDbCircle
 62
3
  6
CONTINUOUS
 10
1211.7792010725
 20
803.450996578
 40
11.0
100
AcDbArc
 50
180.0
 51
360.0
  0
ARC
  5
50A
100
AcDbEntity
  8
0
100
AcDbCircle
 62
3
  6
CONTINUOUS
 10
1211.7792010725
 20
731.450996578
 40
11.0
100
AcDbArc
 50
0.0
 51
180.0
  0
ARC
  5
50B
100
AcDbEntity
  8
0
100
AcDbCircle
 62
3
  6
CONTINUOUS
 10
1211.7792010725
 20
731.450996578
 40
11.0
100
AcDbArc
 50
180.0
 51
360.0
  0
SPLINE
  5
50C
100
AcDbEntity
  8
0
100
AcDbSpline
 62
3
  6
CONTINUOUS
 70
0
 71
3
 72
17
 73
13
 74
0
 42
0.0000001
 43
0.0000001
 44
0.0000000001
 40
0.0
 40
0.0
 40
0.0
 40
0.0
 40
0.0211715793
 40
0.0457476418
 40
0.0759055425
 40
0.1126894075
 40
0.2072029206
 40
0.3288204859
 40
0.4741876708
 40
0.6384732746
 40
0.8158790173
 40
1.0
 40
1.0
 40
1.0
 40
1.0
 10
1401.9528509453
 20
792.4510018463
 30
0.0
 10
1401.8705762158
 20
792.4510018463
 30
0.0
 10
1401.6916160981
 20
792.4939458341
 30
0.0
 10
1401.4476931347
 20
792.6676063652
 30
0.0
 10
1401.2149226663
 20
792.9393892856
 30
0.0
 10
1400.8888510431
 20
793.4775836248
 30
0.0
 10
1400.5301500926
 20
794.3985673153
 30
0.0
 10
1400.1734007857
 20
795.7583947819
 30
0.0
 10
1399.8791775121
 20
797.4100033076
 30
0.0
 10
1399.6593683833
 20
799.2907587943
 30
0.0
 10
1399.5237286968
 20
801.3303628472
 30
0.0
 10
1399.4933409389
 20
802.7354852873
 30
0.0
 10
1399.4933409389
 20
803.450996578
 30
0.0
  0
SPLINE
  5
50D
100
AcDbEntity
  8
0
100
AcDbSpline
 62
3
  6
CONTINUOUS
 70
0
 71
3
 72
17
 73
13
 74
0
 42
0.0000001
 43
0.0000001
 44
0.0000000001
 40
0.0
 40
0.0
 40
0.0
 40
0.0
 40
0.0211715793
 40
0.0457476418
 40
0.0759055425
 40
0.1126894075
 40
0.2072029206
 40
0.3288204859
 40
0.4741876708
 40
0.6384732746
 40
0.8158790173
 40
1.0
 40
1.0
 40
1.0
 40
1.0
 10
1401.9528509453
 20
864.4510018463
 30
0.0
 10
1401.8705762158
 20
864.4510018463
 30
0.0
 10
1401.6916160981
 20
864.4939458341
 30
0.0
 10
1401.4476931347
 20
864.6676063652
 30
0.0
 10
1401.2149226663
 20
864.9393892856
 30
0.0
 10
1400.8888510431
 20
865.4775836248
 30
0.0
 10
1400.5301500926
 20
866.3985673153
 30
0.0
 10
1400.1734007857
 20
867.7583947819
 30
0.0
 10
1399.8791775121
 20
869.4100033076
 30
0.0
 10
1399.6593683833
 20
871.2907587943
 30
0.0
 10
1399.5237286968
 20
873.3303628472
 30
0.0
 10
1399.4933409389
 20
874.7354852873
 30
0.0
 10
1399.4933409389
 20
875.450996578
 30
0.0
  0
SPLINE
  5
50E
100
AcDbEntity
  8
0
100
AcDbSpline
 62
3
  6
CONTINUOUS
 70
0
 71
3
 72
17
 73
13
 74
0
 42
0.0000001
 43
0.0000001
 44
0.0000000001
 40
0.0
 40
0.0
 40
0.0
 40
0.0
 40
0.0211715793
 40
0.0457476418
 40
0.0759055425
 40
0.1126894075
 40
0.2072029206
 40
0.3288204859
 40
0.4741876708
 40
0.6384732746
 40
0.8158790173
 40
1.0
 40
1.0
 40
1.0
 40
1.0
 10
1401.9528509453
 20
936.4510018463
 30
0.0
 10
1401.8705762158
 20
936.4510018463
 30
0.0
 10
1401.6916160981
 20
936.4939458341
 30
0.0
 10
1401.4476931347
 20
936.6676063652
 30
0.0
 10
1401.2149226663
 20
936.9393892856
 30
0.0
 10
1400.8888510431
 20
937.4775836248
 30
0.0
 10
1400.5301500926
 20
938.3985673153
 30
0.0
 10
1400.1734007857
 20
939.7583947819
 30
0.0
 10
1399.8791775121
 20
941.4100033076
 30
0.0
 10
1399.6593683833
 20
943.2907587943
 30
0.0
 10
1399.5237286968
 20
945.3303628472
 30
0.0
 10
1399.4933409389
 20
946.7354852873
 30
0.0
 10
1399.4933409389
 20
947.450996578
 30
0.0
  0
SPLINE
  5
50F
100
AcDbEntity
  8
0
100
AcDbSpline
 62
3
  6
CONTINUOUS
 70
0
 71
3
 72
17
 73
13
 74
0
 42
0.0000001
 43
0.0000001
 44
0.0000000001
 40
0.0
 40
0.0
 40
0.0
 40
0.0
 40
0.0211715793
 40
0.0457476418
 40
0.0759055425
 40
0.1126894075
 40
0.2072029206
 40
0.3288204859
 40
0.4741876708
 40
0.6384732746
 40
0.8158790173
 40
1.0
 40
1.0
 40
1.0
 40
1.0
 10
1401.9528509453
 20
1008.4510018463
 30
0.0
 10
1401.8705762158
 20
1008.4510018463
 30
0.0
 10
1401.6916160981
 20
1008.4939458341
 30
0.0
 10
1401.4476931347
 20
1008.6676063652
 30
0.0
 10
1401.2149226663
 20
1008.9393892856
 30
0.0
 10
1400.8888510431
 20
1009.4775836248
 30
0.0
 10
1400.5301500926
 20
1010.3985673153
 30
0.0
 10
1400.1734007857
 20
1011.7583947819
 30
0.0
 10
1399.8791775121
 20
1013.4100033076
 30
0.0
 10
1399.6593683833
 20
1015.2907587943
 30
0.0
 10
1399.5237286968
 20
1017.3303628472
 30
0.0
 10
1399.4933409389
 20
1018.7354852873
 30
0.0
 10
1399.4933409389
 20
1019.450996578
 30
0.0
  0
SPLINE
  5
510
100
AcDbEntity
  8
0
100
AcDbSpline
 62
3
  6
CONTINUOUS
 70
0
 71
3
 72
13
 73
9
 74
0
 42
0.0000001
 43
0.0000001
 44
0.0000000001
 40
0.0
 40
0.0
 40
0.0
 40
0.0
 40
0.0966712526
 40
0.1984830716
 40
0.3091670557
 40
0.430468915
 40
0.7023725895
 40
1.0
 40
1.0
 40
1.0
 40
1.0
 10
1363.9816145477
 20
742.4509913096
 30
0.0
 10
1363.5222386406
 20
742.4509913096
 30
0.0
 10
1362.5733975806
 20
742.2996750013
 30
0.0
 10
1361.2387066435
 20
741.6439875548
 30
0.0
 10
1360.0255005551
 20
740.5998506247
 30
0.0
 10
1358.5698197242
 20
738.6810529849
 30
0.0
 10
1357.3269237435
 20
735.5819951362
 30
0.0
 10
1357.0011351123
 20
732.8653039131
 30
0.0
 10
1357.0011351123
 20
731.450996578
 30
0.0
  0
SPLINE
  5
511
100
AcDbEntity
  8
0
100
AcDbSpline
 62
3
  6
CONTINUOUS
 70
0
 71
3
 72
13
 73
9
 74
0
 42
0.0000001
 43
0.0000001
 44
0.0000000001
 40
0.0
 40
0.0
 40
0.0
 40
0.0
 40
0.0966712526
 40
0.1984830716
 40
0.3091670557
 40
0.430468915
 40
0.7023725895
 40
1.0
 40
1.0
 40
1.0
 40
1.0
 10
1363.9816145477
 20
814.4509913096
 30
0.0
 10
1363.5222386406
 20
814.4509913096
 30
0.0
 10
1362.5733975806
 20
814.2996750013
 30
0.0
 10
1361.2387066435
 20
813.6439875548
 30
0.0
 10
1360.0255005551
 20
812.5998506247
 30
0.0
 10
1358.5698197242
 20
810.6810529849
 30
0.0
 10
1357.3269237435
 20
807.5819951362
 30
0.0
 10
1357.0011351123
 20
804.8653039131
 30
0.0
 10
1357.0011351123
 20
803.450996578
 30
0.0
  0
SPLINE
  5
512
100
AcDbEntity
  8
0
100
AcDbSpline
 62
3
  6
CONTINUOUS
 70
0
 71
3
 72
13
 73
9
 74
0
 42
0.0000001
 43
0.0000001
 44
0.0000000001
 40
0.0
 40
0.0
 40
0.0
 40
0.0
 40
0.0966712526
 40
0.1984830716
 40
0.3091670557
 40
0.430468915
 40
0.7023725895
 40
1.0
 40
1.0
 40
1.0
 40
1.0
 10
1363.9816145477
 20
886.4509913096
 30
0.0
 10
1363.5222386406
 20
886.4509913096
 30
0.0
 10
1362.5733975806
 20
886.2996750013
 30
0.0
 10
1361.2387066435
 20
885.6439875548
 30
0.0
 10
1360.0255005551
 20
884.5998506247
 30
0.0
 10
1358.5698197242
 20
882.6810529849
 30
0.0
 10
1357.3269237435
 20
879.5819951362
 30
0.0
 10
1357.0011351123
 20
876.8653039131
 30
0.0
 10
1357.0011351123
 20
875.450996578
 30
0.0
  0
SPLINE
  5
513
100
AcDbEntity
  8
0
100
AcDbSpline
 62
3
  6
CONTINUOUS
 70
0
 71
3
 72
13
 73
9
 74
0
 42
0.0000001
 43
0.0000001
 44
0.0000000001
 40
0.0
 40
0.0
 40
0.0
 40
0.0
 40
0.0966712526
 40
0.1984830716
 40
0.3091670557
 40
0.430468915
 40
0.7023725895
 40
1.0
 40
1.0
 40
1.0
 40
1.0
 10
1363.9816145477
 20
958.4509913096
 30
0.0
 10
1363.5222386406
 20
958.4509913096
 30
0.0
 10
1362.5733975806
 20
958.2996750013
 30
0.0
 10
1361.2387066435
 20
957.6439875548
 30
0.0
 10
1360.0255005551
 20
956.5998506247
 30
0.0
 10
1358.5698197242
 20
954.6810529849
 30
0.0
 10
1357.3269237435
 20
951.5819951362
 30
0.0
 10
1357.0011351123
 20
948.8653039131
 30
0.0
 10
1357.0011351123
 20
947.450996578
 30
0.0
  0
SPLINE
  5
514
100
AcDbEntity
  8
0
100
AcDbSpline
 62
3
  6
CONTINUOUS
 70
0
 71
3
 72
13
 73
9
 74
0
 42
0.0000001
 43
0.0000001
 44
0.0000000001
 40
0.0
 40
0.0
 40
0.0
 40
0.0
 40
0.0966712526
 40
0.1984830716
 40
0.3091670557
 40
0.430468915
 40
0.7023725895
 40
1.0
 40
1.0
 40
1.0
 40
1.0
 10
1363.9816145477
 20
1030.4509913096
 30
0.0
 10
1363.5222386406
 20
1030.4509913096
 30
0.0
 10
1362.5733975806
 20
1030.2996750013
 30
0.0
 10
1361.2387066435
 20
1029.6439875548
 30
0.0
 10
1360.0255005551
 20
1028.5998506247
 30
0.0
 10
1358.5698197242
 20
1026.6810529849
 30
0.0
 10
1357.3269237435
 20
1023.5819951362
 30
0.0
 10
1357.0011351123
 20
1020.8653039131
 30
0.0
 10
1357.0011351123
 20
1019.450996578
 30
0.0
  0
SPLINE
  5
515
100
AcDbEntity
  8
0
100
AcDbSpline
 62
3
  6
CONTINUOUS
 70
0
 71
3
 72
13
 73
9
 74
0
 42
0.0000001
 43
0.0000001
 44
0.0000000001
 40
0.0
 40
0.0
 40
0.0
 40
0.0
 40
0.1183903546
 40
0.2378688107
 40
0.3593320676
 40
0.4833406913
 40
0.7380738118
 40
1.0
 40
1.0
 40
1.0
 40
1.0
 10
1296.3946967726
 20
720.4510018463
 30
0.0
 10
1295.7504881826
 20
720.4510018463
 30
0.0
 10
1294.4517451282
 20
720.5944066015
 30
0.0
 10
1292.5872548746
 20
721.229433563
 30
0.0
 10
1290.8716284584
 20
722.2587409301
 30
0.0
 10
1288.8569290614
 20
724.1128932344
 30
0.0
 10
1287.0407665071
 20
727.1898388219
 30
0.0
 10
1286.5478010343
 20
730.0257529345
 30
0.0
 10
1286.5478010343
 20
731.450996578
 30
0.0
  0
SPLINE
  5
516
100
AcDbEntity
  8
0
100
AcDbSpline
 62
3
  6
CONTINUOUS
 70
0
 71
3
 72
13
 73
9
 74
0
 42
0.0000001
 43
0.0000001
 44
0.0000000001
 40
0.0
 40
0.0
 40
0.0
 40
0.0
 40
0.1183903546
 40
0.2378688107
 40
0.3593320676
 40
0.4833406913
 40
0.7380738118
 40
1.0
 40
1.0
 40
1.0
 40
1.0
 10
1296.3946967726
 20
792.4510018463
 30
0.0
 10
1295.7504881826
 20
792.4510018463
 30
0.0
 10
1294.4517451282
 20
792.5944066015
 30
0.0
 10
1292.5872548746
 20
793.229433563
 30
0.0
 10
1290.8716284584
 20
794.2587409301
 30
0.0
 10
1288.8569290614
 20
796.1128932344
 30
0.0
 10
1287.0407665071
 20
799.1898388219
 30
0.0
 10
1286.5478010343
 20
802.0257529345
 30
0.0
 10
1286.5478010343
 20
803.450996578
 30
0.0
  0
SPLINE
  5
517
100
AcDbEntity
  8
0
100
AcDbSpline
 62
3
  6
CONTINUOUS
 70
0
 71
3
 72
13
 73
9
 74
0
 42
0.0000001
 43
0.0000001
 44
0.0000000001
 40
0.0
 40
0.0
 40
0.0
 40
0.0
 40
0.1183903546
 40
0.2378688107
 40
0.3593320676
 40
0.4833406913
 40
0.7380738118
 40
1.0
 40
1.0
 40
1.0
 40
1.0
 10
1296.3946967726
 20
864.4510018463
 30
0.0
 10
1295.7504881826
 20
864.4510018463
 30
0.0
 10
1294.4517451282
 20
864.5944066015
 30
0.0
 10
1292.5872548746
 20
865.229433563
 30
0.0
 10
1290.8716284584
 20
866.2587409301
 30
0.0
 10
1288.8569290614
 20
868.1128932344
 30
0.0
 10
1287.0407665071
 20
871.1898388219
 30
0.0
 10
1286.5478010343
 20
874.0257529345
 30
0.0
 10
1286.5478010343
 20
875.450996578
 30
0.0
  0
SPLINE
  5
518
100
AcDbEntity
  8
0
100
AcDbSpline
 62
3
  6
CONTINUOUS
 70
0
 71
3
 72
13
 73
9
 74
0
 42
0.0000001
 43
0.0000001
 44
0.0000000001
 40
0.0
 40
0.0
 40
0.0
 40
0.0
 40
0.1183903546
 40
0.2378688107
 40
0.3593320676
 40
0.4833406913
 40
0.7380738118
 40
1.0
 40
1.0
 40
1.0
 40
1.0
 10
1296.3946967726
 20
936.4510018463
 30
0.0
 10
1295.7504881826
 20
936.4510018463
 30
0.0
 10
1294.4517451282
 20
936.5944066015
 30
0.0
 10
1292.5872548746
 20
937.229433563
 30
0.0
 10
1290.8716284584
 20
938.2587409301
 30
0.0
 10
1288.8569290614
 20
940.1128932344
 30
0.0
 10
1287.0407665071
 20
943.1898388219
 30
0.0
 10
1286.5478010343
 20
946.0257529345
 30
0.0
 10
1286.5478010343
 20
947.450996578
 30
0.0
  0
SPLINE
  5
519
100
AcDbEntity
  8
0
100
AcDbSpline
 62
3
  6
CONTINUOUS
 70
0
 71
3
 72
13
 73
9
 74
0
 42
0.0000001
 43
0.0000001
 44
0.0000000001
 40
0.0
 40
0.0
 40
0.0
 40
0.0
 40
0.1183903546
 40
0.2378688107
 40
0.3593320676
 40
0.4833406913
 40
0.7380738118
 40
1.0
 40
1.0
 40
1.0
 40
1.0
 10
1296.3946967726
 20
1008.4510018463
 30
0.0
 10
1295.7504881826
 20
1008.4510018463
 30
0.0
 10
1294.4517451282
 20
1008.5944066015
 30
0.0
 10
1292.5872548746
 20
1009.229433563
 30
0.0
 10
1290.8716284584
 20
1010.2587409301
 30
0.0
 10
1288.8569290614
 20
1012.1128932344
 30
0.0
 10
1287.0407665071
 20
1015.1898388219
 30
0.0
 10
1286.5478010343
 20
1018.0257529345
 30
0.0
 10
1286.5478010343
 20
1019.450996578
 30
0.0
  0
LINE
  5
51A
100
AcDbEntity
  8
0
100
AcDbLine
 62
3
  6
CONTINUOUS
 10
1200.2393850315
 20
695.450996578
 11
1255.3190171136
 21
695.450996578
  0
LINE
  5
51B
100
AcDbEntity
  8
0
100
AcDbLine
 62
3
  6
CONTINUOUS
 10
1200.2393850315
 20
1055.450996578
 11
1255.3190171136
 21
1055.450996578
  0
LINE
  5
51C
100
AcDbEntity
  8
SURFACES
100
AcDbLine
 62
3
  6
CONTINUOUS
 10
1257.9933382145
 20
695.450996578
 11
1334.7960553306
 21
695.450996578
  0
LINE
  5
51D
100
AcDbEntity
  8
SURFACES
100
AcDbLine
 62
3
  6
CONTINUOUS
 10
1257.9933382145
 20
1055.450996578
 11
1334.7960553306
 21
1055.450996578
  0
LINE
  5
51E
100
AcDbEntity
  8
SURFACES
100
AcDbLine
 62
3
  6
CONTINUOUS
 10
1257.9933382145
 20
695.450996578
 11
1255.3190171136
 21
695.450996578
  0
LINE
  5
51F
100
AcDbEntity
  8
SURFACES
100
AcDbLine
 62
3
  6
CONTINUOUS
 10
1336.758832787
 20
695.450996578
 11
1391.2043963085
 21
695.450996578
  0
LINE
  5
520
100
AcDbEntity
  8
SURFACES
100
AcDbLine
 62
3
  6
CONTINUOUS
 10
1255.3190171136
 20
1055.450996578
 11
1257.9933382145
 21
1055.450996578
  0
LINE
  5
521
100
AcDbEntity
  8
SURFACES
100
AcDbLine
 62
3
  6
CONTINUOUS
 10
1336.758832787
 20
1055.450996578
 11
1391.2043963085
 21
1055.450996578
  0
LINE
  5
522
100
AcDbEntity
  8
SURFACES
100
AcDbLine
 62
3
  6
CONTINUOUS
 10
1336.758832787
 20
695.450996578
 11
1334.7960553306
 21
695.450996578
  0
LINE
  5
523
100
AcDbEntity
  8
SURFACES
100
AcDbLine
 62
3
  6
CONTINUOUS
 10
1334.7960553306
 20
1055.450996578
 11
1336.758832787
 21
1055.450996578
  0
LINE
  5
524
100
AcDbEntity
  8
SURFACES
100
AcDbLine
 62
3
  6
CONTINUOUS
 10
1392.4153949758
 20
695.450996578
 11
1411.4903069148
 21
695.450996578
  0
LINE
  5
525
100
AcDbEntity
  8
SURFACES
100
AcDbLine
 62
3
  6
CONTINUOUS
 10
1392.4153949758
 20
695.450996578
 11
1391.2043963085
 21
695.450996578
  0
LINE
  5
526
100
AcDbEntity
  8
SURFACES
100
AcDbLine
 62
3
  6
CONTINUOUS
 10
1392.4153949758
 20
1055.450996578
 11
1411.4903069148
 21
1055.450996578
  0
LINE
  5
527
100
AcDbEntity
  8
SURFACES
100
AcDbLine
 62
3
  6
CONTINUOUS
 10
1391.2043963085
 20
1055.450996578
 11
1392.4153949758
 21
1055.450996578
  0
LINE
  5
528
100
AcDbEntity
  8
SURFACES
100
AcDbLine
 62
3
  6
CONTINUOUS
 10
1411.4903069148
 20
1055.450996578
 11
1411.64220969
 21
1055.450996578
  0
LINE
  5
529
100
AcDbEntity
  8
SURFACES
100
AcDbLine
 62
9
  6
CONTINUOUS
 10
1255.3190171136
 20
1055.450996578
 11
1255.3190171136
 21
695.450996578
  0
SPLINE
  5
52A
100
AcDbEntity
  8
0
100
AcDbSpline
 62
3
  6
CONTINUOUS
 70
0
 71
3
 72
17
 73
13
 74
0
 42
0.0000001
 43
0.0000001
 44
0.0000000001
 40
0.0
 40
0.0
 40
0.0
 40
0.0
 40
0.1841209827
 40
0.3615267254
 40
0.5258123292
 40
0.6711795141
 40
0.7927970794
 40
0.8873105925
 40
0.9240944575
 40
0.9542523582
 40
0.9788284207
 40
1.0
 40
1.0
 40
1.0
 40
1.0
 10
1404.4123609517
 20
947.450996578
 30
0.0
 10
1404.4123609517
 20
946.7354852873
 30
0.0
 10
1404.3819731939
 20
945.3303628472
 30
0.0
 10
1404.2463335073
 20
943.2907587943
 30
0.0
 10
1404.0265243785
 20
941.4100033076
 30
0.0
 10
1403.7323011049
 20
939.7583947819
 30
0.0
 10
1403.375551798
 20
938.3985673153
 30
0.0
 10
1403.0168508475
 20
937.4775836248
 30
0.0
 10
1402.6907792243
 20
936.9393892856
 30
0.0
 10
1402.4580087559
 20
936.6676063652
 30
0.0
 10
1402.2140857925
 20
936.4939458341
 30
0.0
 10
1402.0351256748
 20
936.4510018463
 30
0.0
 10
1401.9528509453
 20
936.4510018463
 30
0.0
  0
SPLINE
  5
52B
100
AcDbEntity
  8
0
100
AcDbSpline
 62
3
  6
CONTINUOUS
 70
0
 71
3
 72
13
 73
9
 74
0
 42
0.0000001
 43
0.0000001
 44
0.0000000001
 40
0.0
 40
0.0
 40
0.0
 40
0.0
 40
0.0966712526
 40
0.1984830716
 40
0.3091670557
 40
0.430468915
 40
0.7023725895
 40
1.0
 40
1.0
 40
1.0
 40
1.0
 10
1363.9816145477
 20
936.4510018463
 30
0.0
 10
1364.4409904549
 20
936.4510018463
 30
0.0
 10
1365.3898315149
 20
936.6023181547
 30
0.0
 10
1366.7245224519
 20
937.2580056011
 30
0.0
 10
1367.9377285404
 20
938.3021425312
 30
0.0
 10
1369.3934093713
 20
940.220940171
 30
0.0
 10
1370.6363053519
 20
943.3199980197
 30
0.0
 10
1370.9620939831
 20
946.0366892428
 30
0.0
 10
1370.9620939831
 20
947.450996578
 30
0.0
  0
SPLINE
  5
52C
100
AcDbEntity
  8
0
100
AcDbSpline
 62
3
  6
CONTINUOUS
 70
0
 71
3
 72
17
 73
13
 74
0
 42
0.0000001
 43
0.0000001
 44
0.0000000001
 40
0.0
 40
0.0
 40
0.0
 40
0.0
 40
0.1841209827
 40
0.3615267254
 40
0.5258123292
 40
0.6711795141
 40
0.7927970794
 40
0.8873105925
 40
0.9240944575
 40
0.9542523582
 40
0.9788284207
 40
1.0
 40
1.0
 40
1.0
 40
1.0
 10
1404.4123609517
 20
875.450996578
 30
0.0
 10
1404.4123609517
 20
874.7354852873
 30
0.0
 10
1404.3819731939
 20
873.3303628472
 30
0.0
 10
1404.2463335073
 20
871.2907587943
 30
0.0
 10
1404.0265243785
 20
869.4100033076
 30
0.0
 10
1403.7323011049
 20
867.7583947819
 30
0.0
 10
1403.375551798
 20
866.3985673153
 30
0.0
 10
1403.0168508475
 20
865.4775836248
 30
0.0
 10
1402.6907792243
 20
864.9393892856
 30
0.0
 10
1402.4580087559
 20
864.6676063652
 30
0.0
 10
1402.2140857925
 20
864.4939458341
 30
0.0
 10
1402.0351256748
 20
864.4510018463
 30
0.0
 10
1401.9528509453
 20
864.4510018463
 30
0.0
  0
SPLINE
  5
52D
100
AcDbEntity
  8
0
100
AcDbSpline
 62
3
  6
CONTINUOUS
 70
0
 71
3
 72
13
 73
9
 74
0
 42
0.0000001
 43
0.0000001
 44
0.0000000001
 40
0.0
 40
0.0
 40
0.0
 40
0.0
 40
0.0966712526
 40
0.1984830716
 40
0.3091670557
 40
0.430468915
 40
0.7023725895
 40
1.0
 40
1.0
 40
1.0
 40
1.0
 10
1363.9816145477
 20
1008.4510018463
 30
0.0
 10
1364.4409904549
 20
1008.4510018463
 30
0.0
 10
1365.3898315149
 20
1008.6023181547
 30
0.0
 10
1366.7245224519
 20
1009.2580056011
 30
0.0
 10
1367.9377285404
 20
1010.3021425312
 30
0.0
 10
1369.3934093713
 20
1012.220940171
 30
0.0
 10
1370.6363053519
 20
1015.3199980197
 30
0.0
 10
1370.9620939831
 20
1018.0366892428
 30
0.0
 10
1370.9620939831
 20
1019.450996578
 30
0.0
  0
SPLINE
  5
52E
100
AcDbEntity
  8
0
100
AcDbSpline
 62
3
  6
CONTINUOUS
 70
0
 71
3
 72
17
 73
13
 74
0
 42
0.0000001
 43
0.0000001
 44
0.0000000001
 40
0.0
 40
0.0
 40
0.0
 40
0.0
 40
0.1841209827
 40
0.3615267254
 40
0.5258123292
 40
0.6711795141
 40
0.7927970794
 40
0.8873105925
 40
0.9240944575
 40
0.9542523582
 40
0.9788284207
 40
1.0
 40
1.0
 40
1.0
 40
1.0
 10
1404.4123609517
 20
803.450996578
 30
0.0
 10
1404.4123609517
 20
802.7354852873
 30
0.0
 10
1404.3819731939
 20
801.3303628472
 30
0.0
 10
1404.2463335073
 20
799.2907587943
 30
0.0
 10
1404.0265243785
 20
797.4100033076
 30
0.0
 10
1403.7323011049
 20
795.7583947819
 30
0.0
 10
1403.375551798
 20
794.3985673153
 30
0.0
 10
1403.0168508475
 20
793.4775836248
 30
0.0
 10
1402.6907792243
 20
792.9393892856
 30
0.0
 10
1402.4580087559
 20
792.6676063652
 30
0.0
 10
1402.2140857925
 20
792.4939458341
 30
0.0
 10
1402.0351256748
 20
792.4510018463
 30
0.0
 10
1401.9528509453
 20
792.4510018463
 30
0.0
  0
SPLINE
  5
52F
100
AcDbEntity
  8
0
100
AcDbSpline
 62
3
  6
CONTINUOUS
 70
0
 71
3
 72
17
 73
13
 74
0
 42
0.0000001
 43
0.0000001
 44
0.0000000001
 40
0.0
 40
0.0
 40
0.0
 40
0.0
 40
0.1841209827
 40
0.3615267254
 40
0.5258123292
 40
0.6711795141
 40
0.7927970794
 40
0.8873105925
 40
0.9240944575
 40
0.9542523582
 40
0.9788284207
 40
1.0
 40
1.0
 40
1.0
 40
1.0
 10
1404.4123609517
 20
731.450996578
 30
0.0
 10
1404.4123609517
 20
730.7354852873
 30
0.0
 10
1404.3819731939
 20
729.3303628472
 30
0.0
 10
1404.2463335073
 20
727.2907587943
 30
0.0
 10
1404.0265243785
 20
725.4100033076
 30
0.0
 10
1403.7323011049
 20
723.7583947819
 30
0.0
 10
1403.375551798
 20
722.3985673153
 30
0.0
 10
1403.0168508475
 20
721.4775836248
 30
0.0
 10
1402.6907792243
 20
720.9393892856
 30
0.0
 10
1402.4580087559
 20
720.6676063652
 30
0.0
 10
1402.2140857925
 20
720.4939458341
 30
0.0
 10
1402.0351256748
 20
720.4510018463
 30
0.0
 10
1401.9528509453
 20
720.4510018463
 30
0.0
  0
LINE
  5
530
100
AcDbEntity
  8
SURFACES
100
AcDbLine
 62
9
  6
CONTINUOUS
 10
1391.2043963085
 20
1055.450996578
 11
1391.2043963085
 21
695.450996578
  0
LINE
  5
531
100
AcDbEntity
  8
SURFACES
100
AcDbLine
 62
9
  6
CONTINUOUS
 10
1336.758832787
 20
1055.450996578
 11
1336.758832787
 21
695.450996578
  0
SPLINE
  5
532
100
AcDbEntity
  8
0
100
AcDbSpline
 62
3
  6
CONTINUOUS
 70
0
 71
3
 72
13
 73
9
 74
0
 42
0.0000001
 43
0.0000001
 44
0.0000000001
 40
0.0
 40
0.0
 40
0.0
 40
0.0
 40
0.2976274105
 40
0.569531085
 40
0.6908329443
 40
0.8015169284
 40
0.9033287474
 40
1.0
 40
1.0
 40
1.0
 40
1.0
 10
1370.9620939831
 20
1019.450996578
 30
0.0
 10
1370.9620939831
 20
1020.8653039131
 30
0.0
 10
1370.6363053519
 20
1023.5819951362
 30
0.0
 10
1369.3934093713
 20
1026.6810529849
 30
0.0
 10
1367.9377285404
 20
1028.5998506247
 30
0.0
 10
1366.7245224519
 20
1029.6439875548
 30
0.0
 10
1365.3898315149
 20
1030.2996750013
 30
0.0
 10
1364.4409904549
 20
1030.4509913096
 30
0.0
 10
1363.9816145477
 20
1030.4509913096
 30
0.0
  0
SPLINE
  5
533
100
AcDbEntity
  8
0
100
AcDbSpline
 62
3
  6
CONTINUOUS
 70
0
 71
3
 72
13
 73
9
 74
0
 42
0.0000001
 43
0.0000001
 44
0.0000000001
 40
0.0
 40
0.0
 40
0.0
 40
0.0
 40
0.2976274105
 40
0.569531085
 40
0.6908329443
 40
0.8015169284
 40
0.9033287474
 40
1.0
 40
1.0
 40
1.0
 40
1.0
 10
1370.9620939831
 20
947.450996578
 30
0.0
 10
1370.9620939831
 20
948.8653039131
 30
0.0
 10
1370.6363053519
 20
951.5819951362
 30
0.0
 10
1369.3934093713
 20
954.6810529849
 30
0.0
 10
1367.9377285404
 20
956.5998506247
 30
0.0
 10
1366.7245224519
 20
957.6439875548
 30
0.0
 10
1365.3898315149
 20
958.2996750013
 30
0.0
 10
1364.4409904549
 20
958.4509913096
 30
0.0
 10
1363.9816145477
 20
958.4509913096
 30
0.0
  0
SPLINE
  5
534
100
AcDbEntity
  8
0
100
AcDbSpline
 62
3
  6
CONTINUOUS
 70
0
 71
3
 72
13
 73
9
 74
0
 42
0.0000001
 43
0.0000001
 44
0.0000000001
 40
0.0
 40
0.0
 40
0.0
 40
0.0
 40
0.1183903546
 40
0.2378688107
 40
0.3593320676
 40
0.4833406913
 40
0.7380738118
 40
1.0
 40
1.0
 40
1.0
 40
1.0
 10
1296.3946967726
 20
742.4509913096
 30
0.0
 10
1297.0389053625
 20
742.4509913096
 30
0.0
 10
1298.3376484169
 20
742.3075865544
 30
0.0
 10
1300.2021386705
 20
741.6725595929
 30
0.0
 10
1301.9177650868
 20
740.6432522258
 30
0.0
 10
1303.9324644837
 20
738.7890999215
 30
0.0
 10
1305.7486270381
 20
735.712154334
 30
0.0
 10
1306.2415925109
 20
732.8762402214
 30
0.0
 10
1306.2415925109
 20
731.450996578
 30
0.0
  0
SPLINE
  5
535
100
AcDbEntity
  8
0
100
AcDbSpline
 62
3
  6
CONTINUOUS
 70
0
 71
3
 72
13
 73
9
 74
0
 42
0.0000001
 43
0.0000001
 44
0.0000000001
 40
0.0
 40
0.0
 40
0.0
 40
0.0
 40
0.2976274105
 40
0.569531085
 40
0.6908329443
 40
0.8015169284
 40
0.9033287474
 40
1.0
 40
1.0
 40
1.0
 40
1.0
 10
1370.9620939831
 20
875.450996578
 30
0.0
 10
1370.9620939831
 20
876.8653039131
 30
0.0
 10
1370.6363053519
 20
879.5819951362
 30
0.0
 10
1369.3934093713
 20
882.6810529849
 30
0.0
 10
1367.9377285404
 20
884.5998506247
 30
0.0
 10
1366.7245224519
 20
885.6439875548
 30
0.0
 10
1365.3898315149
 20
886.2996750013
 30
0.0
 10
1364.4409904549
 20
886.4509913096
 30
0.0
 10
1363.9816145477
 20
886.4509913096
 30
0.0
  0
SPLINE
  5
536
100
AcDbEntity
  8
0
100
AcDbSpline
 62
3
  6
CONTINUOUS
 70
0
 71
3
 72
13
 73
9
 74
0
 42
0.0000001
 43
0.0000001
 44
0.0000000001
 40
0.0
 40
0.0
 40
0.0
 40
0.0
 40
0.2976274105
 40
0.569531085
 40
0.6908329443
 40
0.8015169284
 40
0.9033287474
 40
1.0
 40
1.0
 40
1.0
 40
1.0
 10
1370.9620939831
 20
803.450996578
 30
0.0
 10
1370.9620939831
 20
804.8653039131
 30
0.0
 10
1370.6363053519
 20
807.5819951362
 30
0.0
 10
1369.3934093713
 20
810.6810529849
 30
0.0
 10
1367.9377285404
 20
812.5998506247
 30
0.0
 10
1366.7245224519
 20
813.6439875548
 30
0.0
 10
1365.3898315149
 20
814.2996750013
 30
0.0
 10
1364.4409904549
 20
814.4509913096
 30
0.0
 10
1363.9816145477
 20
814.4509913096
 30
0.0
  0
SPLINE
  5
537
100
AcDbEntity
  8
0
100
AcDbSpline
 62
3
  6
CONTINUOUS
 70
0
 71
3
 72
13
 73
9
 74
0
 42
0.0000001
 43
0.0000001
 44
0.0000000001
 40
0.0
 40
0.0
 40
0.0
 40
0.0
 40
0.1183903546
 40
0.2378688107
 40
0.3593320676
 40
0.4833406913
 40
0.7380738118
 40
1.0
 40
1.0
 40
1.0
 40
1.0
 10
1296.3946967726
 20
814.4509913096
 30
0.0
 10
1297.0389053625
 20
814.4509913096
 30
0.0
 10
1298.3376484169
 20
814.3075865544
 30
0.0
 10
1300.2021386705
 20
813.6725595929
 30
0.0
 10
1301.9177650868
 20
812.6432522258
 30
0.0
 10
1303.9324644837
 20
810.7890999215
 30
0.0
 10
1305.7486270381
 20
807.712154334
 30
0.0
 10
1306.2415925109
 20
804.8762402214
 30
0.0
 10
1306.2415925109
 20
803.450996578
 30
0.0
  0
SPLINE
  5
538
100
AcDbEntity
  8
0
100
AcDbSpline
 62
3
  6
CONTINUOUS
 70
0
 71
3
 72
13
 73
9
 74
0
 42
0.0000001
 43
0.0000001
 44
0.0000000001
 40
0.0
 40
0.0
 40
0.0
 40
0.0
 40
0.2976274105
 40
0.569531085
 40
0.6908329443
 40
0.8015169284
 40
0.9033287474
 40
1.0
 40
1.0
 40
1.0
 40
1.0
 10
1370.9620939831
 20
731.450996578
 30
0.0
 10
1370.9620939831
 20
732.8653039131
 30
0.0
 10
1370.6363053519
 20
735.5819951362
 30
0.0
 10
1369.3934093713
 20
738.6810529849
 30
0.0
 10
1367.9377285404
 20
740.5998506247
 30
0.0
 10
1366.7245224519
 20
741.6439875548
 30
0.0
 10
1365.3898315149
 20
742.2996750013
 30
0.0
 10
1364.4409904549
 20
742.4509913096
 30
0.0
 10
1363.9816145477
 20
742.4509913096
 30
0.0
  0
SPLINE
  5
539
100
AcDbEntity
  8
0
100
AcDbSpline
 62
3
  6
CONTINUOUS
 70
0
 71
3
 72
17
 73
13
 74
0
 42
0.0000001
 43
0.0000001
 44
0.0000000001
 40
0.0
 40
0.0
 40
0.0
 40
0.0
 40
0.0211715793
 40
0.0457476418
 40
0.0759055425
 40
0.1126894075
 40
0.2072029206
 40
0.3288204859
 40
0.4741876708
 40
0.6384732746
 40
0.8158790173
 40
1.0
 40
1.0
 40
1.0
 40
1.0
 10
1401.9528509453
 20
742.4509913096
 30
0.0
 10
1402.0351256748
 20
742.4509913096
 30
0.0
 10
1402.2140857925
 20
742.4080473218
 30
0.0
 10
1402.4580087559
 20
742.2343867907
 30
0.0
 10
1402.6907792243
 20
741.9626038703
 30
0.0
 10
1403.0168508475
 20
741.4244095311
 30
0.0
 10
1403.375551798
 20
740.5034258406
 30
0.0
 10
1403.7323011049
 20
739.143598374
 30
0.0
 10
1404.0265243785
 20
737.4919898483
 30
0.0
 10
1404.2463335073
 20
735.6112343616
 30
0.0
 10
1404.3819731939
 20
733.5716303087
 30
0.0
 10
1404.4123609517
 20
732.1665078686
 30
0.0
 10
1404.4123609517
 20
731.450996578
 30
0.0
  0
LINE
  5
53A
100
AcDbEntity
  8
SURFACES
100
AcDbLine
 62
9
  6
CONTINUOUS
 10
1334.7960553306
 20
1055.450996578
 11
1334.7960553306
 21
695.450996578
  0
LINE
  5
53B
100
AcDbEntity
  8
SURFACES
100
AcDbLine
 62
9
  6
CONTINUOUS
 10
1257.9933382145
 20
1055.450996578
 11
1257.9933382145
 21
695.450996578
  0
SPLINE
  5
53C
100
AcDbEntity
  8
0
100
AcDbSpline
 62
3
  6
CONTINUOUS
 70
0
 71
3
 72
13
 73
9
 74
0
 42
0.0000001
 43
0.0000001
 44
0.0000000001
 40
0.0
 40
0.0
 40
0.0
 40
0.0
 40
0.1183903546
 40
0.2378688107
 40
0.3593320676
 40
0.4833406913
 40
0.7380738118
 40
1.0
 40
1.0
 40
1.0
 40
1.0
 10
1296.3946967726
 20
886.4509913096
 30
0.0
 10
1297.0389053625
 20
886.4509913096
 30
0.0
 10
1298.3376484169
 20
886.3075865544
 30
0.0
 10
1300.2021386705
 20
885.6725595929
 30
0.0
 10
1301.9177650868
 20
884.6432522258
 30
0.0
 10
1303.9324644837
 20
882.7890999215
 30
0.0
 10
1305.7486270381
 20
879.712154334
 30
0.0
 10
1306.2415925109
 20
876.8762402214
 30
0.0
 10
1306.2415925109
 20
875.450996578
 30
0.0
  0
SPLINE
  5
53D
100
AcDbEntity
  8
0
100
AcDbSpline
 62
3
  6
CONTINUOUS
 70
0
 71
3
 72
17
 73
13
 74
0
 42
0.0000001
 43
0.0000001
 44
0.0000000001
 40
0.0
 40
0.0
 40
0.0
 40
0.0
 40
0.0211715793
 40
0.0457476418
 40
0.0759055425
 40
0.1126894075
 40
0.2072029206
 40
0.3288204859
 40
0.4741876708
 40
0.6384732746
 40
0.8158790173
 40
1.0
 40
1.0
 40
1.0
 40
1.0
 10
1401.9528509453
 20
814.4509913096
 30
0.0
 10
1402.0351256748
 20
814.4509913096
 30
0.0
 10
1402.2140857925
 20
814.4080473218
 30
0.0
 10
1402.4580087559
 20
814.2343867907
 30
0.0
 10
1402.6907792243
 20
813.9626038703
 30
0.0
 10
1403.0168508475
 20
813.4244095311
 30
0.0
 10
1403.375551798
 20
812.5034258406
 30
0.0
 10
1403.7323011049
 20
811.143598374
 30
0.0
 10
1404.0265243785
 20
809.4919898483
 30
0.0
 10
1404.2463335073
 20
807.6112343616
 30
0.0
 10
1404.3819731939
 20
805.5716303087
 30
0.0
 10
1404.4123609517
 20
804.1665078686
 30
0.0
 10
1404.4123609517
 20
803.450996578
 30
0.0
  0
SPLINE
  5
53E
100
AcDbEntity
  8
0
100
AcDbSpline
 62
3
  6
CONTINUOUS
 70
0
 71
3
 72
13
 73
9
 74
0
 42
0.0000001
 43
0.0000001
 44
0.0000000001
 40
0.0
 40
0.0
 40
0.0
 40
0.0
 40
0.1183903546
 40
0.2378688107
 40
0.3593320676
 40
0.4833406913
 40
0.7380738118
 40
1.0
 40
1.0
 40
1.0
 40
1.0
 10
1296.3946967726
 20
958.4509913096
 30
0.0
 10
1297.0389053625
 20
958.4509913096
 30
0.0
 10
1298.3376484169
 20
958.3075865544
 30
0.0
 10
1300.2021386705
 20
957.6725595929
 30
0.0
 10
1301.9177650868
 20
956.6432522258
 30
0.0
 10
1303.9324644837
 20
954.7890999215
 30
0.0
 10
1305.7486270381
 20
951.712154334
 30
0.0
 10
1306.2415925109
 20
948.8762402214
 30
0.0
 10
1306.2415925109
 20
947.450996578
 30
0.0
  0
SPLINE
  5
53F
100
AcDbEntity
  8
0
100
AcDbSpline
 62
3
  6
CONTINUOUS
 70
0
 71
3
 72
13
 73
9
 74
0
 42
0.0000001
 43
0.0000001
 44
0.0000000001
 40
0.0
 40
0.0
 40
0.0
 40
0.0
 40
0.2619261882
 40
0.5166593087
 40
0.6406679324
 40
0.7621311893
 40
0.8816096454
 40
1.0
 40
1.0
 40
1.0
 40
1.0
 10
1306.2415925109
 20
1019.450996578
 30
0.0
 10
1306.2415925109
 20
1018.0257529345
 30
0.0
 10
1305.7486270381
 20
1015.1898388219
 30
0.0
 10
1303.9324644837
 20
1012.1128932344
 30
0.0
 10
1301.9177650868
 20
1010.2587409301
 30
0.0
 10
1300.2021386705
 20
1009.229433563
 30
0.0
 10
1298.3376484169
 20
1008.5944066015
 30
0.0
 10
1297.0389053625
 20
1008.4510018463
 30
0.0
 10
1296.3946967726
 20
1008.4510018463
 30
0.0
  0
LINE
  5
540
100
AcDbEntity
  8
SURFACES
100
AcDbLine
 62
9
  6
CONTINUOUS
 10
1411.4903069148
 20
1055.450996578
 11
1411.4903069148
 21
695.450996578
  0
SPLINE
  5
541
100
AcDbEntity
  8
0
100
AcDbSpline
 62
3
  6
CONTINUOUS
 70
0
 71
3
 72
17
 73
13
 74
0
 42
0.0000001
 43
0.0000001
 44
0.0000000001
 40
0.0
 40
0.0
 40
0.0
 40
0.0
 40
0.0211715793
 40
0.0457476418
 40
0.0759055425
 40
0.1126894075
 40
0.2072029206
 40
0.3288204859
 40
0.4741876708
 40
0.6384732746
 40
0.8158790173
 40
1.0
 40
1.0
 40
1.0
 40
1.0
 10
1401.9528509453
 20
886.4509913096
 30
0.0
 10
1402.0351256748
 20
886.4509913096
 30
0.0
 10
1402.2140857925
 20
886.4080473218
 30
0.0
 10
1402.4580087559
 20
886.2343867907
 30
0.0
 10
1402.6907792243
 20
885.9626038703
 30
0.0
 10
1403.0168508475
 20
885.4244095311
 30
0.0
 10
1403.375551798
 20
884.5034258406
 30
0.0
 10
1403.7323011049
 20
883.143598374
 30
0.0
 10
1404.0265243785
 20
881.4919898483
 30
0.0
 10
1404.2463335073
 20
879.6112343616
 30
0.0
 10
1404.3819731939
 20
877.5716303087
 30
0.0
 10
1404.4123609517
 20
876.1665078686
 30
0.0
 10
1404.4123609517
 20
875.450996578
 30
0.0
  0
SPLINE
  5
542
100
AcDbEntity
  8
0
100
AcDbSpline
 62
3
  6
CONTINUOUS
 70
0
 71
3
 72
13
 73
9
 74
0
 42
0.0000001
 43
0.0000001
 44
0.0000000001
 40
0.0
 40
0.0
 40
0.0
 40
0.0
 40
0.2619261882
 40
0.5166593087
 40
0.6406679324
 40
0.7621311893
 40
0.8816096454
 40
1.0
 40
1.0
 40
1.0
 40
1.0
 10
1306.2415925109
 20
947.450996578
 30
0.0
 10
1306.2415925109
 20
946.0257529345
 30
0.0
 10
1305.7486270381
 20
943.1898388219
 30
0.0
 10
1303.9324644837
 20
940.1128932344
 30
0.0
 10
1301.9177650868
 20
938.2587409301
 30
0.0
 10
1300.2021386705
 20
937.229433563
 30
0.0
 10
1298.3376484169
 20
936.5944066015
 30
0.0
 10
1297.0389053625
 20
936.4510018463
 30
0.0
 10
1296.3946967726
 20
936.4510018463
 30
0.0
  0
LINE
  5
543
100
AcDbEntity
  8
SURFACES
100
AcDbLine
 62
9
  6
CONTINUOUS
 10
1392.4153949758
 20
1055.450996578
 11
1392.4153949758
 21
695.450996578
  0
SPLINE
  5
544
100
AcDbEntity
  8
0
100
AcDbSpline
 62
3
  6
CONTINUOUS
 70
0
 71
3
 72
13
 73
9
 74
0
 42
0.0000001
 43
0.0000001
 44
0.0000000001
 40
0.0
 40
0.0
 40
0.0
 40
0.0
 40
0.1183903546
 40
0.2378688107
 40
0.3593320676
 40
0.4833406913
 40
0.7380738118
 40
1.0
 40
1.0
 40
1.0
 40
1.0
 10
1296.3946967726
 20
1030.4509913096
 30
0.0
 10
1297.0389053625
 20
1030.4509913096
 30
0.0
 10
1298.3376484169
 20
1030.3075865544
 30
0.0
 10
1300.2021386705
 20
1029.6725595929
 30
0.0
 10
1301.9177650868
 20
1028.6432522258
 30
0.0
 10
1303.9324644837
 20
1026.7890999215
 30
0.0
 10
1305.7486270381
 20
1023.712154334
 30
0.0
 10
1306.2415925109
 20
1020.8762402214
 30
0.0
 10
1306.2415925109
 20
1019.450996578
 30
0.0
  0
SPLINE
  5
545
100
AcDbEntity
  8
0
100
AcDbSpline
 62
3
  6
CONTINUOUS
 70
0
 71
3
 72
17
 73
13
 74
0
 42
0.0000001
 43
0.0000001
 44
0.0000000001
 40
0.0
 40
0.0
 40
0.0
 40
0.0
 40
0.0211715793
 40
0.0457476418
 40
0.0759055425
 40
0.1126894075
 40
0.2072029206
 40
0.3288204859
 40
0.4741876708
 40
0.6384732746
 40
0.8158790173
 40
1.0
 40
1.0
 40
1.0
 40
1.0
 10
1401.9528509453
 20
958.4509913096
 30
0.0
 10
1402.0351256748
 20
958.4509913096
 30
0.0
 10
1402.2140857925
 20
958.4080473218
 30
0.0
 10
1402.4580087559
 20
958.2343867907
 30
0.0
 10
1402.6907792243
 20
957.9626038703
 30
0.0
 10
1403.0168508475
 20
957.4244095311
 30
0.0
 10
1403.375551798
 20
956.5034258406
 30
0.0
 10
1403.7323011049
 20
955.143598374
 30
0.0
 10
1404.0265243785
 20
953.4919898483
 30
0.0
 10
1404.2463335073
 20
951.6112343616
 30
0.0
 10
1404.3819731939
 20
949.5716303087
 30
0.0
 10
1404.4123609517
 20
948.1665078686
 30
0.0
 10
1404.4123609517
 20
947.450996578
 30
0.0
  0
SPLINE
  5
546
100
AcDbEntity
  8
0
100
AcDbSpline
 62
3
  6
CONTINUOUS
 70
0
 71
3
 72
13
 73
9
 74
0
 42
0.0000001
 43
0.0000001
 44
0.0000000001
 40
0.0
 40
0.0
 40
0.0
 40
0.0
 40
0.2619261882
 40
0.5166593087
 40
0.6406679324
 40
0.7621311893
 40
0.8816096454
 40
1.0
 40
1.0
 40
1.0
 40
1.0
 10
1306.2415925109
 20
875.450996578
 30
0.0
 10
1306.2415925109
 20
874.0257529345
 30
0.0
 10
1305.7486270381
 20
871.1898388219
 30
0.0
 10
1303.9324644837
 20
868.1128932344
 30
0.0
 10
1301.9177650868
 20
866.2587409301
 30
0.0
 10
1300.2021386705
 20
865.229433563
 30
0.0
 10
1298.3376484169
 20
864.5944066015
 30
0.0
 10
1297.0389053625
 20
864.4510018463
 30
0.0
 10
1296.3946967726
 20
864.4510018463
 30
0.0
  0
SPLINE
  5
547
100
AcDbEntity
  8
0
100
AcDbSpline
 62
3
  6
CONTINUOUS
 70
0
 71
3
 72
17
 73
13
 74
0
 42
0.0000001
 43
0.0000001
 44
0.0000000001
 40
0.0
 40
0.0
 40
0.0
 40
0.0
 40
0.0211715793
 40
0.0457476418
 40
0.0759055425
 40
0.1126894075
 40
0.2072029206
 40
0.3288204859
 40
0.4741876708
 40
0.6384732746
 40
0.8158790173
 40
1.0
 40
1.0
 40
1.0
 40
1.0
 10
1401.9528509453
 20
1030.4509913096
 30
0.0
 10
1402.0351256748
 20
1030.4509913096
 30
0.0
 10
1402.2140857925
 20
1030.4080473218
 30
0.0
 10
1402.4580087559
 20
1030.2343867907
 30
0.0
 10
1402.6907792243
 20
1029.9626038703
 30
0.0
 10
1403.0168508475
 20
1029.4244095311
 30
0.0
 10
1403.375551798
 20
1028.5034258406
 30
0.0
 10
1403.7323011049
 20
1027.143598374
 30
0.0
 10
1404.0265243785
 20
1025.4919898483
 30
0.0
 10
1404.2463335073
 20
1023.6112343616
 30
0.0
 10
1404.3819731939
 20
1021.5716303087
 30
0.0
 10
1404.4123609517
 20
1020.1665078686
 30
0.0
 10
1404.4123609517
 20
1019.450996578
 30
0.0
  0
SPLINE
  5
548
100
AcDbEntity
  8
0
100
AcDbSpline
 62
3
  6
CONTINUOUS
 70
0
 71
3
 72
13
 73
9
 74
0
 42
0.0000001
 43
0.0000001
 44
0.0000000001
 40
0.0
 40
0.0
 40
0.0
 40
0.0
 40
0.0966712526
 40
0.1984830716
 40
0.3091670557
 40
0.430468915
 40
0.7023725895
 40
1.0
 40
1.0
 40
1.0
 40
1.0
 10
1363.9816145477
 20
720.4510018463
 30
0.0
 10
1364.4409904549
 20
720.4510018463
 30
0.0
 10
1365.3898315149
 20
720.6023181547
 30
0.0
 10
1366.7245224519
 20
721.2580056011
 30
0.0
 10
1367.9377285404
 20
722.3021425312
 30
0.0
 10
1369.3934093713
 20
724.220940171
 30
0.0
 10
1370.6363053519
 20
727.3199980197
 30
0.0
 10
1370.9620939831
 20
730.0366892428
 30
0.0
 10
1370.9620939831
 20
731.450996578
 30
0.0
  0
SPLINE
  5
549
100
AcDbEntity
  8
0
100
AcDbSpline
 62
3
  6
CONTINUOUS
 70
0
 71
3
 72
13
 73
9
 74
0
 42
0.0000001
 43
0.0000001
 44
0.0000000001
 40
0.0
 40
0.0
 40
0.0
 40
0.0
 40
0.2619261882
 40
0.5166593087
 40
0.6406679324
 40
0.7621311893
 40
0.8816096454
 40
1.0
 40
1.0
 40
1.0
 40
1.0
 10
1306.2415925109
 20
803.450996578
 30
0.0
 10
1306.2415925109
 20
802.0257529345
 30
0.0
 10
1305.7486270381
 20
799.1898388219
 30
0.0
 10
1303.9324644837
 20
796.1128932344
 30
0.0
 10
1301.9177650868
 20
794.2587409301
 30
0.0
 10
1300.2021386705
 20
793.229433563
 30
0.0
 10
1298.3376484169
 20
792.5944066015
 30
0.0
 10
1297.0389053625
 20
792.4510018463
 30
0.0
 10
1296.3946967726
 20
792.4510018463
 30
0.0
  0
SPLINE
  5
54A
100
AcDbEntity
  8
0
100
AcDbSpline
 62
3
  6
CONTINUOUS
 70
0
 71
3
 72
17
 73
13
 74
0
 42
0.0000001
 43
0.0000001
 44
0.0000000001
 40
0.0
 40
0.0
 40
0.0
 40
0.0
 40
0.1841209827
 40
0.3615267254
 40
0.5258123292
 40
0.6711795141
 40
0.7927970794
 40
0.8873105925
 40
0.9240944575
 40
0.9542523582
 40
0.9788284207
 40
1.0
 40
1.0
 40
1.0
 40
1.0
 10
1404.4123609517
 20
1019.450996578
 30
0.0
 10
1404.4123609517
 20
1018.7354852873
 30
0.0
 10
1404.3819731939
 20
1017.3303628472
 30
0.0
 10
1404.2463335073
 20
1015.2907587943
 30
0.0
 10
1404.0265243785
 20
1013.4100033076
 30
0.0
 10
1403.7323011049
 20
1011.7583947819
 30
0.0
 10
1403.375551798
 20
1010.3985673153
 30
0.0
 10
1403.0168508475
 20
1009.4775836248
 30
0.0
 10
1402.6907792243
 20
1008.9393892856
 30
0.0
 10
1402.4580087559
 20
1008.6676063652
 30
0.0
 10
1402.2140857925
 20
1008.4939458341
 30
0.0
 10
1402.0351256748
 20
1008.4510018463
 30
0.0
 10
1401.9528509453
 20
1008.4510018463
 30
0.0
  0
SPLINE
  5
54B
100
AcDbEntity
  8
0
100
AcDbSpline
 62
3
  6
CONTINUOUS
 70
0
 71
3
 72
13
 73
9
 74
0
 42
0.0000001
 43
0.0000001
 44
0.0000000001
 40
0.0
 40
0.0
 40
0.0
 40
0.0
 40
0.0966712526
 40
0.1984830716
 40
0.3091670557
 40
0.430468915
 40
0.7023725895
 40
1.0
 40
1.0
 40
1.0
 40
1.0
 10
1363.9816145477
 20
792.4510018463
 30
0.0
 10
1364.4409904549
 20
792.4510018463
 30
0.0
 10
1365.3898315149
 20
792.6023181547
 30
0.0
 10
1366.7245224519
 20
793.2580056011
 30
0.0
 10
1367.9377285404
 20
794.3021425312
 30
0.0
 10
1369.3934093713
 20
796.220940171
 30
0.0
 10
1370.6363053519
 20
799.3199980197
 30
0.0
 10
1370.9620939831
 20
802.0366892428
 30
0.0
 10
1370.9620939831
 20
803.450996578
 30
0.0
  0
SPLINE
  5
54C
100
AcDbEntity
  8
0
100
AcDbSpline
 62
3
  6
CONTINUOUS
 70
0
 71
3
 72
13
 73
9
 74
0
 42
0.0000001
 43
0.0000001
 44
0.0000000001
 40
0.0
 40
0.0
 40
0.0
 40
0.0
 40
0.2619261882
 40
0.5166593087
 40
0.6406679324
 40
0.7621311893
 40
0.8816096454
 40
1.0
 40
1.0
 40
1.0
 40
1.0
 10
1306.2415925109
 20
731.450996578
 30
0.0
 10
1306.2415925109
 20
730.0257529345
 30
0.0
 10
1305.7486270381
 20
727.1898388219
 30
0.0
 10
1303.9324644837
 20
724.1128932344
 30
0.0
 10
1301.9177650868
 20
722.2587409301
 30
0.0
 10
1300.2021386705
 20
721.229433563
 30
0.0
 10
1298.3376484169
 20
720.5944066015
 30
0.0
 10
1297.0389053625
 20
720.4510018463
 30
0.0
 10
1296.3946967726
 20
720.4510018463
 30
0.0
  0
SPLINE
  5
54D
100
AcDbEntity
  8
0
100
AcDbSpline
 62
3
  6
CONTINUOUS
 70
0
 71
3
 72
13
 73
9
 74
0
 42
0.0000001
 43
0.0000001
 44
0.0000000001
 40
0.0
 40
0.0
 40
0.0
 40
0.0
 40
0.0966712526
 40
0.1984830716
 40
0.3091670557
 40
0.430468915
 40
0.7023725895
 40
1.0
 40
1.0
 40
1.0
 40
1.0
 10
1363.9816145477
 20
864.4510018463
 30
0.0
 10
1364.4409904549
 20
864.4510018463
 30
0.0
 10
1365.3898315149
 20
864.6023181547
 30
0.0
 10
1366.7245224519
 20
865.2580056011
 30
0.0
 10
1367.9377285404
 20
866.3021425312
 30
0.0
 10
1369.3934093713
 20
868.220940171
 30
0.0
 10
1370.6363053519
 20
871.3199980197
 30
0.0
 10
1370.9620939831
 20
874.0366892428
 30
0.0
 10
1370.9620939831
 20
875.450996578
 30
0.0
  0
ARC
  5
54E
100
AcDbEntity
  8
SURFACES
100
AcDbCircle
 62
7
  6
CONTINUOUS
 10
1255.3190171136
 20
273.6780597487
 40
3.0
100
AcDbArc
 50
270.0
 51
296.4694251069
  0
ARC
  5
54F
100
AcDbEntity
  8
SURFACES
100
AcDbCircle
 62
7
  6
CONTINUOUS
 10
1332.1217342296
 20
311.9193230697
 40
3.0
100
AcDbArc
 50
296.4694251069
 51
320.6104890384
  0
ARC
  5
550
100
AcDbEntity
  8
SURFACES
100
AcDbCircle
 62
7
  6
CONTINUOUS
 10
1386.5672977511
 20
378.227182254
 40
3.0
100
AcDbArc
 50
320.6104890384
 51
347.0799141452
  0
ARC
  5
551
100
AcDbEntity
  8
SURFACES
100
AcDbCircle
 62
7
  6
CONTINUOUS
 10
1405.6422096902
 20
461.3786590459
 40
3.0
100
AcDbArc
 50
347.0799141452
 51
19.9224733658
  0
ARC
  5
552
100
AcDbEntity
  8
SURFACES
100
AcDbCircle
 62
7
  6
CONTINUOUS
 10
1376.7804249041
 20
541.0108544652
 40
3.0
100
AcDbArc
 50
19.9224733658
 51
57.1574407794
  0
ARC
  5
553
100
AcDbEntity
  8
SURFACES
100
AcDbCircle
 62
7
  6
CONTINUOUS
 10
1305.6175470197
 20
586.9470491218
 40
3.0
100
AcDbArc
 50
57.1574407794
 51
90.0
  0
LINE
  5
554
100
AcDbEntity
  8
0
100
AcDbLine
 62
7
  6
CONTINUOUS
 10
1243.8951097511
 20
592.9470491218
 11
1243.8951097511
 21
589.9470491218
  0
LINE
  5
555
100
AcDbEntity
  8
0
100
AcDbLine
 62
7
  6
CONTINUOUS
 10
1193.2393850315
 20
270.6780597487
 11
1193.2393850315
 21
267.6780597487
  0
LINE
  5
556
100
AcDbEntity
  8
0
100
AcDbLine
 62
7
  6
CONTINUOUS
 10
1305.6175470197
 20
589.9470491218
 11
1250.8951097511
 21
589.9470491218
  0
LINE
  5
557
100
AcDbEntity
  8
SURFACES
100
AcDbLine
 62
7
  6
CONTINUOUS
 10
1378.4074222014
 20
543.5313464399
 11
1307.2445443169
 21
589.4675410966
  0
LINE
  5
558
100
AcDbEntity
  8
SURFACES
100
AcDbLine
 62
7
  6
CONTINUOUS
 10
1408.4626733287
 20
462.4009040575
 11
1379.6008885427
 21
542.0330994768
  0
LINE
  5
559
100
AcDbEntity
  8
SURFACES
100
AcDbLine
 62
7
  6
CONTINUOUS
 10
1389.4913463635
 20
377.5564067978
 11
1408.5662583025
 21
460.7078835896
  0
LINE
  5
55A
100
AcDbEntity
  8
SURFACES
100
AcDbLine
 62
7
  6
CONTINUOUS
 10
1334.4402835083
 20
310.0155559509
 11
1388.8858470298
 21
376.3234151353
  0
LINE
  5
55B
100
AcDbEntity
  8
SURFACES
100
AcDbLine
 62
7
  6
CONTINUOUS
 10
1256.6561776641
 20
270.9925427291
 11
1333.4588947801
 21
309.2338060501
  0
LINE
  5
55C
100
AcDbEntity
  8
0
100
AcDbLine
 62
7
  6
CONTINUOUS
 10
1200.2393850315
 20
270.6780597487
 11
1255.3190171136
 21
270.6780597487
  0
LINE
  5
55D
100
AcDbEntity
  8
0
100
AcDbLine
 62
7
  6
CONTINUOUS
 10
1193.2393850315
 20
270.6780597487
 11
1200.2393850315
 21
270.6780597487
  0
LINE
  5
55E
100
AcDbEntity
  8
0
100
AcDbLine
 62
7
  6
CONTINUOUS
 10
1250.8951097511
 20
589.9470491218
 11
1243.8951097511
 21
589.9470491218
  0
LINE
  5
55F
100
AcDbEntity
  8
SURFACES
100
AcDbLine
 62
9
  6
CONTINUOUS
 10
1382.4213521812
 20
543.0553444884
 11
1379.6008885427
 21
542.0330994768
  0
LINE
  5
560
100
AcDbEntity
  8
SURFACES
100
AcDbLine
 62
9
  6
CONTINUOUS
 10
1392.4153949758
 20
376.8856313415
 11
1389.4913463635
 21
377.5564067978
  0
LINE
  5
561
100
AcDbEntity
  8
SURFACES
100
AcDbLine
 62
9
  6
CONTINUOUS
 10
1305.6175470197
 20
592.9470491218
 11
1305.6175470197
 21
589.9470491218
  0
LINE
  5
562
100
AcDbEntity
  8
SURFACES
100
AcDbLine
 62
9
  6
CONTINUOUS
 10
1308.8715416142
 20
591.9880330713
 11
1307.2445443169
 21
589.4675410966
  0
LINE
  5
563
100
AcDbEntity
  8
0
100
AcDbLine
 62
9
  6
CONTINUOUS
 10
1250.8951097511
 20
592.9470491218
 11
1250.8951097511
 21
589.9470491218
  0
LINE
  5
564
100
AcDbEntity
  8
SURFACES
100
AcDbLine
 62
9
  6
CONTINUOUS
 10
1336.758832787
 20
308.1117888322
 11
1334.4402835083
 21
310.0155559509
  0
LINE
  5
565
100
AcDbEntity
  8
SURFACES
100
AcDbLine
 62
9
  6
CONTINUOUS
 10
1391.2043963085
 20
374.4196480166
 11
1388.8858470298
 21
376.3234151353
  0
LINE
  5
566
100
AcDbEntity
  8
SURFACES
100
AcDbLine
 62
9
  6
CONTINUOUS
 10
1380.0344194986
 20
546.0518384147
 11
1378.4074222014
 21
543.5313464399
  0
LINE
  5
567
100
AcDbEntity
  8
SURFACES
100
AcDbLine
 62
9
  6
CONTINUOUS
 10
1257.9933382145
 20
268.3070257096
 11
1256.6561776641
 21
270.9925427291
  0
LINE
  5
568
100
AcDbEntity
  8
SURFACES
100
AcDbLine
 62
9
  6
CONTINUOUS
 10
1334.7960553306
 20
306.5482890306
 11
1333.4588947801
 21
309.2338060501
  0
LINE
  5
569
100
AcDbEntity
  8
SURFACES
100
AcDbLine
 62
9
  6
CONTINUOUS
 10
1411.4903069148
 20
460.0371081333
 11
1408.5662583025
 21
460.7078835896
  0
LINE
  5
56A
100
AcDbEntity
  8
SURFACES
100
AcDbLine
 62
9
  6
CONTINUOUS
 10
1255.3190171136
 20
267.6780597487
 11
1255.3190171136
 21
270.6780597487
  0
LINE
  5
56B
100
AcDbEntity
  8
SURFACES
100
AcDbLine
 62
9
  6
CONTINUOUS
 10
1411.2831369672
 20
463.4231490691
 11
1408.4626733287
 21
462.4009040575
  0
LINE
  5
56C
100
AcDbEntity
  8
0
100
AcDbLine
 62
9
  6
CONTINUOUS
 10
1200.2393850315
 20
270.6780597487
 11
1200.2393850315
 21
267.6780597487
  0
LINE
  5
56D
100
AcDbEntity
  8
0
100
AcDbLine
 62
3
  6
CONTINUOUS
 10
1243.8951097511
 20
592.9470491218
 11
1250.8951097511
 21
592.9470491218
  0
ARC
  5
56E
100
AcDbEntity
  8
SURFACES
100
AcDbCircle
 62
3
  6
CONTINUOUS
 10
1255.3190171136
 20
273.6780597487
 40
6.0
100
AcDbArc
 50
270.0
 51
296.4694251069
  0
ARC
  5
56F
100
AcDbEntity
  8
SURFACES
100
AcDbCircle
 62
3
  6
CONTINUOUS
 10
1332.1217342296
 20
311.9193230697
 40
6.0
100
AcDbArc
 50
296.4694251069
 51
320.6104890384
  0
ARC
  5
570
100
AcDbEntity
  8
SURFACES
100
AcDbCircle
 62
3
  6
CONTINUOUS
 10
1386.5672977511
 20
378.227182254
 40
6.0
100
AcDbArc
 50
320.6104890384
 51
347.0799141452
  0
ARC
  5
571
100
AcDbEntity
  8
SURFACES
100
AcDbCircle
 62
3
  6
CONTINUOUS
 10
1405.6422096902
 20
461.3786590459
 40
6.0
100
AcDbArc
 50
347.0799141452
 51
19.9224733658
  0
ARC
  5
572
100
AcDbEntity
  8
SURFACES
100
AcDbCircle
 62
3
  6
CONTINUOUS
 10
1376.7804249041
 20
541.0108544652
 40
6.0
100
AcDbArc
 50
19.9224733658
 51
57.1574407794
  0
ARC
  5
573
100
AcDbEntity
  8
SURFACES
100
AcDbCircle
 62
3
  6
CONTINUOUS
 10
1305.6175470197
 20
586.9470491218
 40
6.0
100
AcDbArc
 50
57.1574407794
 51
90.0
  0
LINE
  5
574
100
AcDbEntity
  8
0
100
AcDbLine
 62
3
  6
CONTINUOUS
 10
1305.6175470197
 20
592.9470491218
 11
1250.8951097511
 21
592.9470491218
  0
LINE
  5
575
100
AcDbEntity
  8
SURFACES
100
AcDbLine
 62
3
  6
CONTINUOUS
 10
1380.0344194986
 20
546.0518384147
 11
1308.8715416142
 21
591.9880330713
  0
LINE
  5
576
100
AcDbEntity
  8
SURFACES
100
AcDbLine
 62
3
  6
CONTINUOUS
 10
1411.2831369672
 20
463.4231490691
 11
1382.4213521812
 21
543.0553444884
  0
LINE
  5
577
100
AcDbEntity
  8
0
100
AcDbLine
 62
3
  6
CONTINUOUS
 10
1200.2393850315
 20
267.6780597487
 11
1193.2393850315
 21
267.6780597487
  0
LINE
  5
578
100
AcDbEntity
  8
SURFACES
100
AcDbLine
 62
3
  6
CONTINUOUS
 10
1392.4153949758
 20
376.8856313415
 11
1411.4903069148
 21
460.0371081333
  0
LINE
  5
579
100
AcDbEntity
  8
SURFACES
100
AcDbLine
 62
3
  6
CONTINUOUS
 10
1336.758832787
 20
308.1117888322
 11
1391.2043963085
 21
374.4196480166
  0
LINE
  5
57A
100
AcDbEntity
  8
SURFACES
100
AcDbLine
 62
3
  6
CONTINUOUS
 10
1257.9933382145
 20
268.3070257096
 11
1334.7960553306
 21
306.5482890306
  0
LINE
  5
57B
100
AcDbEntity
  8
0
100
AcDbLine
 62
3
  6
CONTINUOUS
 10
1200.2393850315
 20
267.6780597487
 11
1255.3190171136
 21
267.6780597487
  0
DIMENSION
  5
57C
100
AcDbEntity
  8
0
100
AcDbDimension
 62
2
  6
CONTINUOUS
  2
*D0
 10
869.0636572717
 20
1107.6689823008
 11
585.7653149414
 21
1107.6689823008
 70
160
 71
2
 72
2
 41
0.9
 42
562.5967077339
  3
DIMSTYLE_1
100
AcDbAlignedDimension
 13
306.4669495378
 23
892.9737151252
 14
869.0636572717
 24
892.9737151252
100
AcDbRotatedDimension
  0
DIMENSION
  5
57D
100
AcDbEntity
  8
0
100
AcDbDimension
 62
2
  6
CONTINUOUS
  2
*D1
 10
231.1202859186
 20
539.9737151252
 11
231.1202859186
 21
717.9737203443
 70
160
 71
2
 72
2
 41
0.9
 42
360.0
  3
DIMSTYLE_2
100
AcDbAlignedDimension
 13
457.854348199
 23
899.9737151252
 14
370.3829466313
 24
539.9737151252
 50
270.0
100
AcDbRotatedDimension
  0
DIMENSION
  5
57E
100
AcDbEntity
  8
0
100
AcDbDimension
 62
2
  6
CONTINUOUS
  2
*D2
 10
1108.4530695889
 20
267.6780597487
 11
1108.4530695889
 21
428.3125634596
 70
160
 71
2
 72
2
 41
0.9
 42
325.2689893732
  3
DIMSTYLE_3
100
AcDbAlignedDimension
 13
1243.8951097511
 23
592.9470491218
 14
1200.7792010725
 24
267.6780597487
 50
270.0
100
AcDbRotatedDimension
  0
DIMENSION
  5
57F
100
AcDbEntity
  8
0
100
AcDbDimension
 62
2
  6
CONTINUOUS
  2
*D3
 10
1220.488638438
 20
270.6780597487
 11
1247.8889566483
 21
305.2701787477
 70
162
 71
2
 72
2
 41
0.9
 42
2.6796140344
  3
DIMSTYLE_4
100
AcDb2LineAngularDimension
 13
1287.5172613341
 23
286.358754646
 14
1287.8353692408
 24
286.5171455036
 15
1220.8439978393
 25
270.6780597487
 16
1247.8889566483
 26
305.2701787477
  0
DIMENSION
  5
580
100
AcDbEntity
  8
0
100
AcDbDimension
 62
2
  6
CONTINUOUS
  2
*D4
 10
1308.8501696018
 20
296.98074034
 11
1316.50523184
 21
331.5238786995
 70
162
 71
2
 72
2
 41
0.9
 42
2.7202516031
  3
DIMSTYLE_4
100
AcDb2LineAngularDimension
 13
1351.7069236788
 23
331.0441553621
 14
1351.8854463904
 24
331.2615736063
 15
1309.101999658
 25
297.1061304284
 16
1316.50523184
 26
331.5238786995
  0
DIMENSION
  5
581
100
AcDbEntity
  8
0
100
AcDbDimension
 62
2
  6
CONTINUOUS
  2
*D5
 10
1374.6023791717
 20
358.9279449787
 11
1368.4967523773
 21
387.1012918818
 70
162
 71
2
 72
2
 41
0.9
 42
2.6796140344
  3
DIMSTYLE_4
100
AcDb2LineAngularDimension
 13
1394.4720954473
 23
399.2685197122
 14
1394.5239995569
 24
399.4947804352
 15
1374.749691266
 25
359.1073526103
 16
1368.4967523773
 26
387.1012918818
  0
DIMENSION
  5
582
100
AcDbEntity
  8
0
100
AcDbDimension
 62
2
  6
CONTINUOUS
  2
*D6
 10
1396.2067430065
 20
406.8302063255
 11
1352.7074780608
 21
458.1399251421
 70
162
 71
2
 72
2
 41
0.9
 42
2.5683818604
  3
DIMSTYLE_4
100
AcDb2LineAngularDimension
 13
1389.8184499474
 23
513.8419514753
 14
1389.6270812702
 24
514.3699544388
 15
1396.3323150663
 25
407.3776008431
 16
1352.7074780608
 26
458.1399251421
  0
DIMENSION
  5
583
100
AcDbEntity
  8
0
100
AcDbDimension
 62
2
  6
CONTINUOUS
  2
*D7
 10
1398.4983036623
 20
489.8934738479
 11
1335.0877873129
 21
507.7995342564
 70
162
 71
2
 72
2
 41
0.9
 42
2.4917198753
  3
DIMSTYLE_4
100
AcDb2LineAngularDimension
 13
1332.2875635103
 23
573.3020761989
 14
1331.8131296287
 24
573.6083269828
 15
1398.3058858035
 25
490.4243715954
 16
1335.0877873129
 26
507.7995342564
  0
DIMENSION
  5
584
100
AcDbEntity
  8
0
100
AcDbDimension
 62
2
  6
CONTINUOUS
  2
*D8
 10
1343.8755737241
 20
565.8219249081
 11
1293.9261759211
 21
547.2775792138
 70
162
 71
2
 72
2
 41
0.9
 42
2.5683818604
  3
DIMSTYLE_4
100
AcDb2LineAngularDimension
 13
1262.4625307466
 23
589.9470491218
 14
1262.0176905937
 24
589.9470491218
 15
1343.5018350457
 25
566.0631761502
 16
1293.9261759211
 26
547.2775792138
  0
DIMENSION
  5
585
100
AcDbEntity
  8
0
100
AcDbDimension
 62
2
  6
CONTINUOUS
  2
*D9
 10
900.8554211992
 20
575.9737151252
 11
900.8554211992
 21
609.9737309377
 70
160
 71
2
 72
2
 41
0.9
 42
72.0
  3
DIMSTYLE_5
100
AcDbAlignedDimension
 13
875.7024386374
 23
647.9737151252
 14
875.7024386374
 24
575.9737151252
 50
270.0
100
AcDbRotatedDimension
  0
DIMENSION
  5
586
100
AcDbEntity
  8
0
100
AcDbDimension
 62
2
  6
CONTINUOUS
  2
*D10
 10
856.0409768508
 20
566.3560225878
 11
912.7840034339
 21
485.7652379726
 70
163
 71
1
 72
2
 41
0.9
 42
22.0
  1
35x {\fSymbol_ASME;\W1.0;⌀}<>
  3
DIMSTYLE_6
100
AcDbDiametricDimension
 15
845.363900424
 25
585.5914076626
  0
DIMENSION
  5
587
100
AcDbEntity
  8
0
100
AcDbDimension
 62
2
  6
CONTINUOUS
  2
*D11
 10
306.4669495378
 20
926.4121843629
 11
335.9658544922
 21
926.4121843629
 70
160
 71
2
 72
2
 41
0.9
 42
62.9978145878
  3
DIMSTYLE_5
100
AcDbAlignedDimension
 13
369.4647641256
 23
913.9737151252
 14
306.4669495378
 24
892.9737151252
 50
180.0
100
AcDbRotatedDimension
  0
DIMENSION
  5
588
100
AcDbEntity
  8
0
100
AcDbDimension
 62
2
  6
CONTINUOUS
  2
*D12
 10
306.4669495378
 20
953.0049171873
 11
379.7419464111
 21
953.0049171873
 70
160
 71
2
 72
2
 41
0.9
 42
150.5499833233
  3
DIMSTYLE_2
100
AcDbAlignedDimension
 13
457.016932861
 23
913.9737151252
 14
306.4669495378
 24
892.9737151252
 50
180.0
100
AcDbRotatedDimension
  0
DIMENSION
  5
589
100
AcDbEntity
  8
0
100
AcDbDimension
 62
2
  6
CONTINUOUS
  2
*D13
 10
306.4669495378
 20
981.8137110805
 11
423.5180255127
 21
981.8137110805
 70
160
 71
2
 72
2
 41
0.9
 42
238.1021520587
  3
DIMSTYLE_2
100
AcDbAlignedDimension
 13
544.5691015965
 23
913.9737151252
 14
306.4669495378
 24
892.9737151252
 50
180.0
100
AcDbRotatedDimension
  0
DIMENSION
  5
58A
100
AcDbEntity
  8
0
100
AcDbDimension
 62
2
  6
CONTINUOUS
  2
*D14
 10
306.4669495378
 20
1013.5772530652
 11
467.2023962402
 21
1013.5772530652
 70
160
 71
2
 72
2
 41
0.9
 42
325.4709053777
  3
DIMSTYLE_2
100
AcDbAlignedDimension
 13
631.9378549155
 23
913.9737151252
 14
306.4669495378
 24
892.9737151252
 50
180.0
100
AcDbRotatedDimension
  0
DIMENSION
  5
58B
100
AcDbEntity
  8
0
100
AcDbDimension
 62
2
  6
CONTINUOUS
  2
*D15
 10
719.0699092336
 20
1045.9178942866
 11
510.7684240723
 21
1045.9178942866
 70
160
 71
2
 72
2
 41
0.9
 42
412.6029596958
  3
DIMSTYLE_1
100
AcDbAlignedDimension
 13
306.4669495378
 23
892.9737151252
 14
719.0699092336
 24
913.9737151252
100
AcDbRotatedDimension
  0
DIMENSION
  5
58C
100
AcDbEntity
  8
0
100
AcDbDimension
 62
2
  6
CONTINUOUS
  2
*D16
 10
806.2019635517
 20
1081.6980469583
 11
554.3344519043
 21
1081.6980469583
 70
160
 71
2
 72
2
 41
0.9
 42
499.7350140139
  3
DIMSTYLE_1
100
AcDbAlignedDimension
 13
306.4669495378
 23
892.9737151252
 14
806.2019635517
 24
913.9737151252
100
AcDbRotatedDimension
  0
DIMENSION
  5
58D
100
AcDbEntity
  8
0
100
AcDbDimension
 62
2
  6
CONTINUOUS
  2
*D17
 10
1143.0574768352
 20
695.450996578
 11
1143.0574768352
 21
873.4510002115
 70
160
 71
2
 72
2
 41
0.9
 42
360.0
  3
DIMSTYLE_2
100
AcDbAlignedDimension
 13
1200.2393850315
 23
1055.450996578
 14
1200.2393850315
 24
695.450996578
 50
270.0
100
AcDbRotatedDimension
  0
DIMENSION
  5
58E
100
AcDbEntity
  8
0
100
AcDbDimension
 62
2
  6
CONTINUOUS
  2
*D18
 10
1193.2393850315
 20
230.2939625432
 11
1300.4407910156
 21
230.2939625432
 70
160
 71
2
 72
2
 41
0.9
 42
218.4028246587
  3
DIMSTYLE_3
100
AcDbAlignedDimension
 13
1411.6422096902
 23
461.3786590459
 14
1193.2393850315
 24
270.6780597487
 50
180.0
100
AcDbRotatedDimension
  0
DIMENSION
  5
58F
100
AcDbEntity
  8
0
100
AcDbDimension
 62
2
  6
CONTINUOUS
  2
*D19
 10
1193.2393850315
 20
629.965451618
 11
1216.5672216797
 21
629.965451618
 70
160
 71
2
 72
2
 41
0.9
 42
50.6557247196
  3
DIMSTYLE_7
100
AcDbAlignedDimension
 13
1243.8951097511
 23
592.9470491218
 14
1193.2393850315
 24
270.6780597487
 50
180.0
100
AcDbRotatedDimension
  0
DIMENSION
  5
590
100
AcDbEntity
  8
0
100
AcDbDimension
 62
2
  6
CONTINUOUS
  2
*D20
 10
762.7121192403
 20
498.7512721275
 11
804.7072851563
 21
498.7512721275
 70
160
 71
2
 72
2
 41
0.9
 42
87.9903193971
  3
DIMSTYLE_8
100
AcDbAlignedDimension
 13
850.7024386374
 23
550.9737151252
 14
762.7121192403
 24
550.9737151252
 50
180.0
100
AcDbRotatedDimension
  0
LINE
  5
591
100
AcDbEntity
  8
AXES
100
AcDbLine
 62
7
  6
CENTER
 10
762.7121192403
 20
575.9737151252
 11
787.7121192403
 21
575.9737151252
  0
LINE
  5
592
100
AcDbEntity
  8
AXES
100
AcDbLine
 62
7
  6
CENTER
 10
762.7121192403
 20
575.9737151252
 11
737.7121192403
 21
575.9737151252
  0
LINE
  5
593
100
AcDbEntity
  8
AXES
100
AcDbLine
 62
7
  6
CENTER
 10
762.7121192403
 20
575.9737151252
 11
762.7121192403
 21
600.9737151252
  0
LINE
  5
594
100
AcDbEntity
  8
AXES
100
AcDbLine
 62
7
  6
CENTER
 10
762.7121192403
 20
575.9737151252
 11
762.7121192403
 21
550.9737151252
  0
LINE
  5
595
100
AcDbEntity
  8
AXES
100
AcDbLine
 62
7
  6
CENTER
 10
850.7024386374
 20
647.9737151252
 11
875.7024386374
 21
647.9737151252
  0
LINE
  5
596
100
AcDbEntity
  8
AXES
100
AcDbLine
 62
7
  6
CENTER
 10
850.7024386374
 20
647.9737151252
 11
825.7024386374
 21
647.9737151252
  0
LINE
  5
597
100
AcDbEntity
  8
AXES
100
AcDbLine
 62
7
  6
CENTER
 10
850.7024386374
 20
647.9737151252
 11
850.7024386374
 21
672.9737151252
  0
LINE
  5
598
100
AcDbEntity
  8
AXES
100
AcDbLine
 62
7
  6
CENTER
 10
850.7024386374
 20
647.9737151252
 11
850.7024386374
 21
622.9737151252
  0
LINE
  5
599
100
AcDbEntity
  8
AXES
100
AcDbLine
 62
7
  6
CENTER
 10
850.7024386374
 20
575.9737151252
 11
875.7024386374
 21
575.9737151252
  0
LINE
  5
59A
100
AcDbEntity
  8
AXES
100
AcDbLine
 62
7
  6
CENTER
 10
850.7024386374
 20
575.9737151252
 11
825.7024386374
 21
575.9737151252
  0
LINE
  5
59B
100
AcDbEntity
  8
AXES
100
AcDbLine
 62
7
  6
CENTER
 10
850.7024386374
 20
575.9737151252
 11
850.7024386374
 21
600.9737151252
  0
LINE
  5
59C
100
AcDbEntity
  8
AXES
100
AcDbLine
 62
7
  6
CENTER
 10
850.7024386374
 20
575.9737151252
 11
850.7024386374
 21
550.9737151252
  0
LINE
  5
59D
100
AcDbEntity
  8
AXES
100
AcDbLine
 62
7
  6
CENTER
 10
806.2019635517
 20
913.9737151252
 11
806.2019635517
 21
525.9737151252
  0
LINE
  5
59E
100
AcDbEntity
  8
AXES
100
AcDbLine
 62
7
  6
CENTER
 10
719.0699092336
 20
913.9737151252
 11
719.0699092336
 21
525.9737151252
  0
LINE
  5
59F
100
AcDbEntity
  8
AXES
100
AcDbLine
 62
7
  6
CENTER
 10
631.9378549155
 20
913.9737151252
 11
631.9378549155
 21
525.9737151252
  0
LINE
  5
5A0
100
AcDbEntity
  8
AXES
100
AcDbLine
 62
7
  6
CENTER
 10
544.5691015965
 20
913.9737151252
 11
544.5691015965
 21
525.9737151252
  0
LINE
  5
5A1
100
AcDbEntity
  8
AXES
100
AcDbLine
 62
7
  6
CENTER
 10
457.016932861
 20
913.9737151252
 11
457.016932861
 21
525.9737151252
  0
LINE
  5
5A2
100
AcDbEntity
  8
AXES
100
AcDbLine
 62
7
  6
CENTER
 10
369.4647641256
 20
913.9737151252
 11
369.4647641256
 21
525.9737151252
  0
TEXT
  5
5A3
100
AcDbEntity
  8
NOTES
100
AcDbText
 62
5
  6
CONTINUOUS
 10
1459.2610167132
 20
161.0390999004
  7
STANDARD
 40
14.0
  1
Boite6_tole
 41
0.6883116883
 72
0
100
AcDbText
  0
TEXT
  5
5A4
100
AcDbEntity
  8
NOTES
100
AcDbText
 62
5
  6
CONTINUOUS
 10
1459.2610167132
 20
140.0390999004
  7
STANDARD
 40
14.0
  1
Matiere S235
 41
0.7261904762
 72
0
100
AcDbText
  0
TEXT
  5
5A5
100
AcDbEntity
  8
NOTES
100
AcDbText
 62
5
  6
CONTINUOUS
 10
1459.2610167132
 20
119.0390999004
  7
STANDARD
 40
14.0
  1
poids 4.4kg
 41
0.7207792208
 72
0
100
AcDbText
  0
TEXT
  5
5A6
100
AcDbEntity
  8
NOTES
100
AcDbText
 62
5
  6
CONTINUOUS
 10
1459.2610167132
 20
98.0390999004
  7
STANDARD
 40
14.0
  1
Echelle 1/4
 41
0.6904761905
 72
0
100
AcDbText
  0
INSERT
  5
5A7
100
AcDbEntity
  8
0
100
AcDbBlockReference
 62
2
  6
CONTINUOUS
  2
DICKE_BL0
 10
650.4233517335
 20
361.8749553553
  0
INSERT
  5
5A8
100
AcDbEntity
  8
0
100
AcDbBlockReference
 62
2
  6
CONTINUOUS
  2
07005_BL1
 10
683.6409866455
 20
234.8690627006
  0
INSERT
  5
5A9
100
AcDbEntity
  8
0
100
AcDbBlockReference
 62
2
  6
CONTINUOUS
  2
07001_BL2
 10
164.6123879736
 20
989.5491209151
  0
LEADER
  5
5AA
100
AcDbEntity
  8
0
100
AcDbLeader
 62
2
  6
CONTINUOUS
  3
STANDARD
 71
1
 72
0
 73
2
 75
0
 76
2
 10
683.1667956395
 20
539.9737151252
 30
0.0
 10
656.115268922
 20
483.3369346505
 30
0.0
340
5AB
212
14.4207151994
222
-0.1741002636
232
0.0
1001
ACAD
1000
DSTYLE
1002
{
1070
77
1070
0
1002
}
  0
INSERT
  5
5AB
102
{ACAD_REACTORS
330
5AA
102
}
100
AcDbEntity
  8
0
100
AcDbBlockReference
 62
2
  6
CONTINUOUS
  2
08029_BL3
 10
641.6945537226
 20
483.5110349141
  0
ENDSEC
  0
SECTION
  2
OBJECTS
  0
DICTIONARY
  5
C
100
AcDbDictionary
280
0
281
1
  3
ACAD_GROUP
350
D
  3
ACAD_MLINESTYLE
350
17
  3
ACAD_LAYOUT
350
1A
  3
ACAD_PLOTSETTINGS
350
19
  3
ACAD_PLOTSTYLENAME
350
E
  0
DICTIONARY
  5
D
102
{ACAD_REACTORS
330
C
102
}
100
AcDbDictionary
280
0
281
1
  0
ACDBDICTIONARYWDFLT
  5
E
102
{ACAD_REACTORS
330
C
102
}
100
AcDbDictionary
281
1
  3
Normal
350
F
100
AcDbDictionaryWithDefault
340
F
  0
DICTIONARY
  5
17
102
{ACAD_REACTORS
330
C
102
}
100
AcDbDictionary
280
0
281
1
  3
Standard
350
18
  0
DICTIONARY
  5
19
102
{ACAD_REACTORS
330
C
102
}
100
AcDbDictionary
281
1
  0
DICTIONARY
  5
1A
102
{ACAD_REACTORS
330
C
102
}
100
AcDbDictionary
281
1
  3
Model
350
5AC
  3
Layout1
350
5AD
  0
ACDBPLACEHOLDER
  5
F
102
{ACAD_REACTORS
330
E
102
}
  0
MLINESTYLE
  5
18
102
{ACAD_REACTORS
330
17
102
}
100
AcDbMlineStyle
  2
STANDARD
 70
0
  3

 62
256
 51
90.0
 52
90.0
 71
2
 49
0.5
 62
256
  6
BYLAYER
 49
-0.5
 62
256
  6
BYLAYER
  0
LAYOUT
  5
5AC
102
{ACAD_REACTORS
330
1A
102
}
100
AcDbPlotSettings
  1

  2
none_device
  4
ISO_A3_(420.00_x_297.00_MM)
  6

 40
0.0
 41
0.0
 42
0.0
 43
0.0
 44
420.0
 45
297.0
 46
0.0
 47
0.0
 48
0.0
 49
0.0
140
0.0
141
0.0
142
1.0
143
1.0
 70
1024
 72
1
 73
0
 74
0
  7

 75
0
147
1.0
148
0.0
149
0.0
100
AcDbLayout
  1
Model
 70
0
 71
0
 10
0.0
 20
0.0
 11
420.0
 21
297.0
 12
0.0
 22
0.0
 32
0.0
 14
0.0
 24
0.0
 34
0.0
 15
0.0
 25
0.0
 35
0.0
146
0.0
 13
0.0
 23
0.0
 33
0.0
 16
1.0
 26
0.0
 36
0.0
 17
0.0
 27
1.0
 37
0.0
 76
0
330
20E
345
0
346
0
  0
LAYOUT
  5
5AD
102
{ACAD_REACTORS
330
1A
102
}
100
AcDbPlotSettings
  1

  2
none_device
  4
ISO_A3_(420.00_x_297.00_MM)
  6

 40
0.0
 41
0.0
 42
0.0
 43
0.0
 44
420.0
 45
297.0
 46
0.0
 47
0.0
 48
0.0
 49
0.0
140
0.0
141
0.0
142
1.0
143
1.0
 70
0
 72
1
 73
0
 74
0
  7

 75
0
147
1.0
148
0.0
149
0.0
100
AcDbLayout
  1
Layout1
 70
0
 71
1
 10
0.0
 20
0.0
 11
420.0
 21
297.0
 12
0.0
 22
0.0
 32
0.0
 14
0.0
 24
0.0
 34
0.0
 15
0.0
 25
0.0
 35
0.0
146
0.0
 13
0.0
 23
0.0
 33
0.0
 16
1.0
 26
0.0
 36
0.0
 17
0.0
 27
1.0
 37
0.0
 76
0
330
20F
345
0
346
0
  0
ENDSEC
  0
EOF
